Матадор / Matador / Сезон: 1 / Серии: 1-8 (13) (Robert Rodriguez) [2014, США, WEB-DLRip] MVO (Kiitos.tv)

Ответить на тему
 

emilsky ®

Стаж: 7 лет 3 месяца

Сообщений: 2237

Симпатии: 610

Матадор / Matador
Год выпуска: 2014
Страна: США
Жанр: Драма,детектив,боевик
Продолжительность: ~47 мин
Режиссёр: Robert Rodriguez
В ролях: Танк Сейд, Гэбриел Луна, Луис Одзава Чангчьен, Кристофер С. Рейд, Джонни Круз, Ивет Монреаль, Нил Хопкинс, Никки Уилан, Альфред Молина, Питер Гадиот-Описание: Главный герой – Тони «Матадор» Браво, прославленный футболист, который на самом деле является агентом ЦРУ под прикрытием. Он внедряется в команду «LA Riot» («Мятежники»), владелец которой – Андрес Галан, связан с преступным синдикатом. Доступ к высшим кругам общества позволяет Тони добывать необходимую для его тайной работы информацию.-Перевод: Профессиональный (многоголосый закадровый) Kiitos.tv-Перевод: cachtice
Озвучивание: kiitos, Chertenok
Работа с видео: des
Работа со звуком:Saviol
Cведение: kiitos
Русские субтитры: нет-Качество: WEB-DLRip
Формат: AVI
Видео кодек: XviD
Аудио кодек: MP3
Видео: 720x400 23.98fps
Аудио: MP3 48000Hz stereo 128kbps

MediaInfo

General
Complete name : Matador.s01e01.kiitos.tv.avi
Format : AVI
Format/Info : Audio Video Interleave
File size : 552 MiB
Duration : 47mn 42s
Overall bit rate : 1 619 Kbps
Writing application : VirtualDubMod 1.5.10.2 (build 2540/release)
Writing library : VirtualDubMod build 2540/release
Video
ID : 0
Format : MPEG-4 Visual
Format profile : [email protected]
Format settings, BVOP : No
Format settings, QPel : No
Format settings, GMC : No warppoints
Format settings, Matrix : Default (H.263)
Codec ID : XVID
Codec ID/Hint : XviD
Duration : 47mn 42s
Bit rate : 1 481 Kbps
Width : 720 pixels
Height : 400 pixels
Display aspect ratio : 16:9
Frame rate : 23.976 fps
Color space : YUV
Chroma subsampling : 4:2:0
Bit depth : 8 bits
Scan type : Progressive
Compression mode : Lossy
Bits/(Pixel*Frame) : 0.214
Stream size : 505 MiB (92%)
Writing library : Lavc56.0.101
Audio
ID : 1
Format : MPEG Audio
Format version : Version 1
Format profile : Layer 3
Mode : Joint stereo
Mode extension : MS Stereo
Codec ID : 55
Codec ID/Hint : MP3
Duration : 47mn 42s
Bit rate mode : Constant
Bit rate : 128 Kbps
Channel(s) : 2 channels
Sampling rate : 48.0 KHz
Compression mode : Lossy
Stream size : 43.7 MiB (8%)
Alignment : Aligned on interleaves
Interleave, duration : 42 ms (1.00 video frame)
Interleave, preload duration : 504 ms

Внимание! Раздача ведётся путём добавления новых серий

Внимание! Раздача ведётся путём добавления новых серий; при каждом добавлении создётся новый торрент. Чтобы начать докачку новой серии, пользователям необходимо сделать следующее: (1) остановить скачивание, (2) удалить старый торрент у себя из клиента (старые серии удалять не надо), (3 скачать новый торрент и запустить его у себя в клиенте вместо старого, при этом указать клиенту путь в старую папку куда и должно происходить скачивание новых серий.
Ваш клиент при этом должен произвести хеширование (проверку) старой папки (если не производит сам - помогите ему сделать это), и будет докачивать только те серии которых у вас ещё нет. Старые серии при этом не удаляются, а продолжают раздаваться!
Eсли вы уже удалили старые серии, то предотвратить повторную закачку старых серий можно, отжав галочку в соответсвующих местах при запуске нового торрента.

Скриншоты



Последний раз редактировалось: emilsky (2015-05-01 06:09), всего редактировалось 5 раз(а)

Создавать темы 03-Ноя-2014 09:00

[Профиль]  [ЛС] 

emilsky ®

Стаж: 7 лет 3 месяца

Сообщений: 2237

Симпатии: 610

2 серия!

Создавать темы 04-Ноя-2014 15:03

[Профиль]  [ЛС] 

emilsky ®

Стаж: 7 лет 3 месяца

Сообщений: 2237

Симпатии: 610

3 серия!

Создавать темы 18-Ноя-2014 08:34

[Профиль]  [ЛС] 

SteaM

Стаж: 3 года 10 месяцев

Сообщений: 5

Симпатии: 1

Скорость дайте

Создавать темы 19-Ноя-2014 22:17

[Профиль]  [ЛС] 

emilsky ®

Стаж: 7 лет 3 месяца

Сообщений: 2237

Симпатии: 610

4 серия!

Создавать темы 22-Дек-2014 18:38

[Профиль]  [ЛС] 

emilsky ®

Стаж: 7 лет 3 месяца

Сообщений: 2237

Симпатии: 610

обновлено до 7 серии!

Создавать темы 09-Мар-2015 06:20

[Профиль]  [ЛС] 

emilsky ®

Стаж: 7 лет 3 месяца

Сообщений: 2237

Симпатии: 610

8 серия!

Создавать темы 01-Май-2015 06:09

[Профиль]  [ЛС] 
Показать сообщения:    
Ответить на тему

Текущее время: 23-Окт 00:18

Часовой пояс: UTC + 5



Вы не можете начинать темы
Вы не можете отвечать на сообщения
Вы не можете редактировать свои сообщения
Вы не можете удалять свои сообщения
Вы не можете голосовать в опросах
Вы не можете прикреплять файлы к сообщениям
Вы не можете скачивать файлы