Иллюзионист / The Illusionist (Нил Бёргер / Neil Burger) [1080p] [2006 г., Мистика, мелодрама, детектив, BDrip-AVC]

Ответить на тему
 

Jeneva ®

Стаж: 5 лет 8 месяцев

Сообщений: 47

Симпатии: 70

Иллюзионист / The Illusionist-«Всё иллюзорно... Кроме любви»- Год выпуска: 2006
Страна: США, Чехия
Жанр: Мистика, мелодрама, детектив
Продолжительность: 1:48:56
Перевод: Профессиональный (полное дублирование)
Cубтитры: Русские, Английские--Режиссер: Нил Бёргер / Neil Burger--В ролях: Эдвард Нортон, Пол Джаматти, Джессика Бил, Руфус Сьюэлл, Эдди Марсан, Джэйк Вуд, Том Фишер, Аарон Джонсон, Элинор Томлинсон, Карл Джонсон.--Описание: Вена. Начало 20 века. В городе появляется загадочный человек, называвший себя иллюзионистом Эйзенхаймом. Он показывает публике невиданные фокусы, которые кажутся не иначе как волшебством.
Слава о необыкновенном чародее доходит до кронпринца Леопольда, который почтил своим присутствием одно из представлений Эйзенхайма. Леопольда сопровождает его будущая невеста Софи. Её появление в зале дает толчок для целой вереницы необъяснимых событий, корни которых уходят в прошлое…
--Рейтинг КиноПоиска: 8.136 (142 324)
Рейтинг IMDB: 7.60 (239 279)
Возраст: зрителям, достигшим 12 лет
--Качество: BDRip 1080p
Формат: MKV
Видео кодек: AVC
Аудио кодек: AC3
Видео: 1920x1040 (1,85:1), 23,976 fps, 10287 kbps (0,21 b/px)
Аудио №1: AC3 5.1, 48000 Hz, 640 kbit/s - Дубляж
Аудио №2: AC3 5.1, 48000 Hz, 640 kbit/s - Английский
Субтитры: UTF8
Навигация по главам: есть

Скриншоты





Знаете ли вы, что...


«Иллюзионист» (англ. The Illusionist) — фильм режиссёра Нила Бергера, сюжет которого основан на новелле Стивена Миллхаузера. Премьера фильма состоялась в январе 2006 года на кинофестивале «Сандэнс». В России картина вышла в прокат 19 октября 2006 года с рекламным слоганом «Все иллюзорно… кроме любви». В оригинале тэглайн звучит как «Nothing is what it seems» («Всё иначе, чем кажется»).
Фильм снят по мотивам рассказа Стивена Миллхаузера «Иллюзионист Айзенхайм» (Eisenheim the Illusionist, 1990).
Несмотря на то что действие фильма происходит в Австрии, фильм большей частью был снят в Чешской Республике. Город Вена, в котором разворачивались основные события, был снят в чешском городе Табор и Праге. Деревня, в которой вырос Эйзенхайм, была снята в Чешском Крумлове. Замок принца Леопольда — это замок Конопиште, расположенный около Бенешова, в котором жил Франц Фердинанд — австрийский эрцгерцог. Остальные эпизоды фильма были сняты на киностудии «Баррандов» в Праге.
Часть отснятых сцен не вошла в финальную версию фильма, включая сцену с участием Робби Кэя.
Для полного погружения в роль Эдвард Нортон стал учеником известного иллюзиониста Джеймса Фридмана. Несмотря на это, в некоторых сценах мы видим руки Фридмана, а не Нортона.
Хотя история «Иллюзиониста» является вымыслом, некоторые её детали основаны на биографии австрийского Наследного Принца Рудольфа, сына Императора Франца Иосифа. Как раз тот портрет, который Айзенхайм изображает при помощи фокуса во дворце, на самом деле и есть портрет Франца Иосифа. Мёртвые тела Рудольфа и его любовницы Баронессы Мэри Ветсеры были найдены в его охотничьем домике в Майерлинге 30 января 1889 года. Имперская семья на протяжении многих лет придавала этому событию налет таинственности.
В сцене, когда Принц Леопольд стреляет из ружья, к нему подходит инспектор Уль, чтобы сообщить о тайных встречах Софии и Айзенхайма. В последующем их диалоге словом «прелюбодействовать» заменили слово «Fucking», чтобы картина смогла достичь рейтинга PG-13, который исключает слово на букву «F».

Награды и номинации


Лента была номинирована на премию «Оскар» за лучшую работу оператора. «Серебряной лягушки» был удостоен оператор фильма, Дик Поуп. Эдвард Нортон получил премию от кинокритиков Сан-Диего (также за фильмы «Разрисованная вуаль» и «Это случилось в долине»). Композитор Филип Гласс удостоился BFCA Award в 2007 году.

Mediainfo

General
Unique ID : 13883622221589192960833680825938410070 (0xA71E36CB20CF9BE6D2BA42B321CFA56)
Complete name : The Illusionist_2006_1080p_x264_Rus_Eng_AC3-5.1_[TAS-IX.NET].mkv
Format : Matroska
File size : 8.81 GiB
Duration : 1h 49mn
Overall bit rate : 11.5 Mbps
Movie name : The Illusionist
Encoded date : UTC 2009-06-24 17:37:25
Writing application : mkvmerge v2.4.0 ('Fumbling Towards Ecstasy') built on Jun 5 2009 00:47:29
Writing library : libebml v0.7.8 + libmatroska v0.8.1
Cover : Yes
Video
ID : 1
Format : AVC
Format/Info : Advanced Video Codec
Format profile : [email protected]
Format settings, CABAC : Yes
Format settings, ReFrames : 4 frames
Format settings, GOP : N=1
Codec ID : V_MPEG4/ISO/AVC
Duration : 1h 49mn
Bit rate : 10.0 Mbps
Width : 1 920 pixels
Height : 1 040 pixels
Display aspect ratio : 16:9
Frame rate : 23.976 fps
Color space : YUV
Chroma subsampling : 4:2:0
Bit depth : 8 bits
Scan type : Progressive
Bits/(Pixel*Frame) : 0.209
Stream size : 7.65 GiB (87%)
Writing library : x264 core 67 r1170M 364d7df
Encoding settings : cabac=1 / ref=4 / deblock=1:0:0 / analyse=0x3:0x113 / me=umh / subme=9 / psy_rd=1.0:0.0 / mixed_ref=1 / me_range=32 / chroma_me=1 / trellis=2 / 8x8dct=1 / cqm=0 / deadzone=21,11 / chroma_qp_offset=-2 / threads=3 / nr=0 / decimate=1 / mbaff=0 / bframes=16 / b_pyramid=1 / b_adapt=2 / b_bias=0 / direct=3 / wpredb=1 / keyint=250 / keyint_min=25 / scenecut=40 / rc=crf / crf=20.0 / qcomp=0.60 / qpmin=10 / qpmax=51 / qpstep=4 / vbv_maxrate=50000 / vbv_bufsize=50000 / ip_ratio=1.40 / pb_ratio=1.30 / aq=1:1.00
Language : English
Audio #1
ID : 2
Format : AC-3
Format/Info : Audio Coding 3
Mode extension : CM (complete main)
Codec ID : A_AC3
Duration : 1h 49mn
Bit rate mode : Constant
Bit rate : 640 Kbps
Channel(s) : 6 channels
Channel positions : Front: L C R, Side: L R, LFE
Sampling rate : 48.0 KHz
Bit depth : 16 bits
Compression mode : Lossy
Stream size : 501 MiB (6%)
Language : Russian
Audio #2
ID : 3
Format : AC-3
Format/Info : Audio Coding 3
Mode extension : CM (complete main)
Codec ID : A_AC3
Duration : 1h 49mn
Bit rate mode : Constant
Bit rate : 640 Kbps
Channel(s) : 6 channels
Channel positions : Front: L C R, Side: L R, LFE
Sampling rate : 48.0 KHz
Bit depth : 16 bits
Compression mode : Lossy
Stream size : 501 MiB (6%)
Language : English
Text #1
ID : 4
Format : UTF-8
Codec ID : S_TEXT/UTF8
Codec ID/Info : UTF-8 Plain Text
Language : Russian
Text #2
ID : 5
Format : UTF-8
Codec ID : S_TEXT/UTF8
Codec ID/Info : UTF-8 Plain Text
Language : English
Menu
00:00:00.000 : ru:Глава 01
00:06:04.489 : ru:Глава 02
00:13:06.786 : ru:Глава 03
00:22:00.986 : ru:Глава 04
00:36:55.796 : ru:Глава 05
00:43:03.956 : ru:Глава 06
00:48:54.598 : ru:Глава 07
00:53:27.078 : ru:Глава 08
01:02:35.168 : ru:Глава 09
01:09:34.253 : ru:Глава 10
01:18:44.511 : ru:Глава 11
01:22:32.572 : ru:Глава 12
01:28:58.833 : ru:Глава 13
01:34:00.843 : ru:Глава 14
01:42:53.250 : ru:Глава 15
01:44:22.381 : ru:Глава 16

Создавать темы 04-Ноя-2014 13:01

[Профиль]  [ЛС] 

натали

Стаж: 5 лет 9 месяцев

Сообщений: 26

Симпатии: 3

Помогите докачать фильм, пожалуйста! 93,6% и дальше никак.

Создавать темы 25-Янв-2015 17:05

[Профиль]  [ЛС] 

Libra

Стаж: 4 года 8 месяцев

Сообщений: 20

Симпатии: 1

Фильм прост шикарный отвечаю, советую всем

Создавать темы 28-Янв-2015 00:19

[Профиль]  [ЛС] 

Georga7

Стаж: 4 года 10 месяцев

Сообщений: 10

ay Спасибо!

Создавать темы 01-Дек-2016 15:41

[Профиль]  [ЛС] 
Показать сообщения:    
Ответить на тему

Текущее время: 19-Ноя 12:04

Часовой пояс: UTC + 5



Вы не можете начинать темы
Вы не можете отвечать на сообщения
Вы не можете редактировать свои сообщения
Вы не можете удалять свои сообщения
Вы не можете голосовать в опросах
Вы не можете прикреплять файлы к сообщениям
Вы не можете скачивать файлы