Лагерь «X-Ray» / Camp X-Ray (Питер Сэттлер / Peter Sattler) [2014 г., драма, WEB-DLRip] MVO

Ответить на тему
 

Suxrob89 ®

Стаж: 7 лет 2 месяца

Сообщений: 933

Симпатии: 564

-Лагерь «X-Ray» / Camp X-Ray- Страна: США
Жанр: драма
Год выпуска: 2014
Продолжительность: 01:57:11
Перевод: Любительское (двухголосое) [Сладкая парочка]
Cубтитры: нет
Оригинальная аудиодорожка: нет-Режиссер: Питер Сэттлер / Peter Sattler-В ролях: Кристен Стюарт, Пейман Моаади, Кори Майкл Смит, Джон Кэрролл Линч, Тара Холт, Лэйн Гаррисон, Джулия Даффи, Юсуф Азами, Джозеф Джулиан Сория, Марко Хэнлиэн-Описание: Девушка по имени Коул вступает в ряды вооруженных сил США и по долгу службы попадает в, пожалуй, самое жуткое место в мире — тюрьму для военнопленных Гуантанамо. Героиня знакомится там с заключенным Али, который сидит к тому времени уже восемь лет, и решается вызволить его оттуда.- -Качество видео: WEB-DLRip
Формат видео: AVI
Видео: 720x304 (2.37:1), 23.976 fps, XviD build 50 ~1385 kbps avg, 0.26 bit/pixel
Аудио: 48 kHz, AC3 Dolby Digital, 2/0 (L,R) ch, ~384 kbps

MediaInfo

General
Format : AVI
Format/Info : Audio Video Interleave
File size : 1.46 GiB
Duration : 1h 57mn
Overall bit rate : 1 779 Kbps
Writing application : VirtualDubMod 1.5.10.2 (build 2540/release)
Writing library : VirtualDubMod build 2540/release
Video
ID : 0
Format : MPEG-4 Visual
Format profile : Advanced [email protected]
Format settings, BVOP : Yes
Format settings, QPel : No
Format settings, GMC : No warppoints
Format settings, Matrix : Default (MPEG)
Codec ID : XVID
Codec ID/Hint : XviD
Duration : 1h 57mn
Bit rate : 1 386 Kbps
Width : 720 pixels
Height : 304 pixels
Display aspect ratio : 2.35:1
Frame rate : 23.976 fps
Color space : YUV
Chroma subsampling : 4:2:0
Bit depth : 8 bits
Scan type : Progressive
Compression mode : Lossy
Bits/(Pixel*Frame) : 0.264
Stream size : 1.13 GiB (78%)
Writing library : XviD 1.2.1 (UTC 2008-12-04)
Audio
ID : 1
Format : AC-3
Format/Info : Audio Coding 3
Mode extension : CM (complete main)
Format settings, Endianness : Big
Codec ID : 2000
Duration : 1h 57mn
Bit rate mode : Constant
Bit rate : 384 Kbps
Channel count : 2 channels
Channel positions : Front: L R
Sampling rate : 48.0 KHz
Bit depth : 16 bits
Compression mode : Lossy
Stream size : 322 MiB (22%)
Alignment : Split accross interleaves
Interleave, duration : 42 ms (1.00 video frame)
Interleave, preload duration : 500 ms

Скриншоты




Создавать темы 04-Ноя-2014 13:36

[Профиль]  [ЛС] 

razor2011

Стаж: 5 лет 1 месяц

Сообщений: 227

Симпатии: 37

помогу с раздачей

Создавать темы 04-Ноя-2014 17:56

[Профиль]  [ЛС] 

DX-T-1000

Стаж: 5 лет 9 месяцев

Сообщений: 26

baha0021, есть фильмы у которых рейтинг мало, но хорошие фильмы, кому как. спасибо автор за фильм

Создавать темы 04-Ноя-2014 19:51

[Профиль]  [ЛС] 

jas81

Стаж: 3 года 11 месяцев

Сообщений: 108

Симпатии: 7

Только что закончил просмотр.. Проста тупой фильм.. зря тратил времени... концовка проста убил ... не фильм карочее смысла вопшем нет

Создавать темы 11-Ноя-2014 20:20

[Профиль]  [ЛС] 

nico3500

Стаж: 4 года 9 месяцев

Сообщений: 99

Симпатии: 6

Качаем, но только из-за Пеймана Моади ("Развод Надера и Силин", "История Элли").

Создавать темы 14-Ноя-2014 17:12

[Профиль]  [ЛС] 

100stiks

Стаж: 4 года 8 месяцев

Сообщений: 35

Симпатии: 3

Фильм ни о чем. Зря время потратил. Ставлю 4/10

Создавать темы 20-Ноя-2014 15:56

[Профиль]  [ЛС] 

Cheeez

Стаж: 5 лет

Сообщений: 15

фильм слабоват

Создавать темы 23-Ноя-2014 09:50

[Профиль]  [ЛС] 
Показать сообщения:    
Ответить на тему

Текущее время: 20-Окт 23:12

Часовой пояс: UTC + 5



Вы не можете начинать темы
Вы не можете отвечать на сообщения
Вы не можете редактировать свои сообщения
Вы не можете удалять свои сообщения
Вы не можете голосовать в опросах
Вы не можете прикреплять файлы к сообщениям
Вы не можете скачивать файлы