Это праздник / Забава / Entertainment (Саджид / Sajid, Фархад / Farhad) [2014, Индия, Комедия, драма, BDRip] DVO (RAIM&VictorY)

Ответить на тему
 

Suxrob89 ®

Стаж: 7 лет

Сообщений: 933

Симпатии: 564

-Забава / Entertainment- Страна: Индия
Жанр: Комедия, драма
Год выпуска: 2014
Продолжительность: 02:19:04
Перевод: Любительский (двухголосый, закадровый) - RAIM&VictorY
Cубтитры: Нет
Перевод и редакция: Honey&Haseena-Режиссеры: Саджид / Sajid / Фархад / Farhad-В ролях: Акшай Кумар, Таманна Бхатия, Сону Суд, Пракаш Радж, Джонни Левер, Митхун Чакраборти, Ритеш Дешмукх, Шреяс Талпаде, Кришна Абхишек, Враджеш Хирджи, Даршан Джаривала, Дэмиэн Мевис, Гарги Патель-Описание: Неудачник Акхил Локханде в один прекрасный день узнаёт, что является единственным наследником многомиллионного состояния бриллиантового магната Панналала Джори. Заручившись поддержкой друга, он отправляется в особняк отца, чтобы предъявить законные права на богатство. Но оказывается, что его отец умер и переписал всё своё состояние на собаку по кличке Забава. Решив бороться до конца ради своей любви к красавице Сакши, отец которой поставил ему условие сначала разбогатеть, а уж потом жениться на его дочери, Акхил завязывает войну со своим конкурентом на наследство, исход которой приведёт к оглушительному финалу…(c) Honey- -Качество видео: BDRip (исх. Blu-Ray Disc [Team Telly])
Формат видео: AVI
Видео: 720x304 (2.37:1), 23.976 fps, XviD build 50 ~1299 kbps avg, 0.25 bit/pixel
Аудио: 48 kHz, AC3 Dolby Digital, 2/0 (L,R) ch, ~192 kbps

MI

General
Complete name : C:\INDIYA\Zabava.2014.BDRip.XviD.HDR-soso4eg.avi
Format : AVI
Format/Info : Audio Video Interleave
File size : 1.46 GiB
Duration : 2h 19mn
Overall bit rate : 1 501 Kbps
Movie name : Entertainment.2014.BDRip.XviD.HDR-soso4eg
Director : soso4eg
Writing application : VirtualDubMod 1.5.10.3 | www.virtualdub-fr.org || (build 2550/release)
Original source form/Name : Hindi
Copyright : специально для BitTorrent трекер RuTracker.org (ex torrents.ru)
Comment : озвуч. RAIM&VictorY по суб. Honey&Haseena
Video
ID : 0
Format : MPEG-4 Visual
Format profile : Advanced [email protected]
Format settings, BVOP : 1
Format settings, QPel : No
Format settings, GMC : No warppoints
Format settings, Matrix : Default (H.263)
Codec ID : XVID
Codec ID/Hint : XviD
Duration : 2h 19mn
Bit rate : 1 300 Kbps
Width : 720 pixels
Height : 304 pixels
Display aspect ratio : 2.35:1
Frame rate : 23.976 fps
Color space : YUV
Chroma subsampling : 4:2:0
Bit depth : 8 bits
Scan type : Progressive
Compression mode : Lossy
Bits/(Pixel*Frame) : 0.248
Stream size : 1.26 GiB (87%)
Writing library : XviD 1.2.1 (UTC 2008-12-04)
Audio
ID : 1
Format : AC-3
Format/Info : Audio Coding 3
Mode extension : CM (complete main)
Format settings, Endianness : Big
Codec ID : 2000
Duration : 2h 19mn
Bit rate mode : Constant
Bit rate : 192 Kbps
Channel(s) : 2 channels
Channel positions : Front: L R
Sampling rate : 48.0 KHz
Bit depth : 16 bits
Compression mode : Lossy
Stream size : 191 MiB (13%)
Alignment : Split accross interleaves
Interleave, duration : 42 ms (1.00 video frame)
Interleave, preload duration : 500 ms

Скриншот с названием:

Скриншоты

Создавать темы 06-Ноя-2014 06:57

[Профиль]  [ЛС] 

Imperiya

Стаж: 6 лет 4 месяца

Сообщений: 275

Симпатии: 4

народ прошу раздавайте уж немного осталось 4%

Создавать темы 16-Ноя-2014 15:05

[Профиль]  [ЛС] 

Davron1402

Стаж: 3 года 7 месяцев

Сообщений: 136

Симпатии: 122

kto smotrel

Создавать темы 24-Ноя-2014 00:05

[Профиль]  [ЛС] 
Показать сообщения:    
Ответить на тему

Текущее время: 22-Авг 10:33

Часовой пояс: UTC + 5



Вы не можете начинать темы
Вы не можете отвечать на сообщения
Вы не можете редактировать свои сообщения
Вы не можете удалять свои сообщения
Вы не можете голосовать в опросах
Вы не можете прикреплять файлы к сообщениям
Вы не можете скачивать файлы