BBC: загадочные кошки / The cat connection (Ивонн Эллис)[2006, Документальные ,SATRip]

Ответить на тему
 

HYUGO ®

Стаж: 3 года 9 месяцев

Сообщений: 95

Симпатии: 40

BBC: загадочные кошки / the cat connection- -Год выпуска:2006
Страна:Великобритания
Жанр:Документальные
Продолжительность::00:29:40
Перевод:профессиональный, (одноголосный)--Режиссер:Ивонн Эллис--Описание:
Кошки — пожалуй, наиболее распространённые домашние животные на нашей планете. Они живут во многих домах Англии, США, России и, конечно же, Египта, где кошка с незапамятных времен считается священным животным. Однако мы настолько привыкли к этим созданиям, что не отдаём отчёта в том, что кошки на протяжении миллионов лет эволюционировали в идеальных хищников. Как же вышло, что эти гордые, свободолюбивые и достаточно опасные животные так прижились среди людей? Можно объехать весь земной шар, чтобы убедиться, что практически в каждом уголке живут и дикие, и домашние представители этой породы. Новый фильм ВВС посвящён обеим сторонам кошачьей жизни. Ведь каждая кошка, будучи милым, ласковым, общительным и игривым комком шерсти и любимцем семьи, тем не менее, ни на миг не забывает своих хищных повадок и в любой момент способна превратиться в бесстрашного охотника и показать свою настоящую дикую сущность.--Качество:SATRip
Формат:AVi
Видео кодек:Xvid 576x432 25fps 1 345 Kbps
Аудио кодек:MP3 48000Hz stereo 128kbps-

MI

General
Complete name : D:\разное\bbc загадочные кошки\02.Koshki.BBC.avi
Format : AVI
Format/Info : Audio Video Interleave
File size : 349 MiB
Duration : 29mn 38s
Overall bit rate : 1 646 Kbps
Movie name : 02.Koshki.BBC.Russian.DVDRip.XviD-PtrX
Part/Position : 2
Part/Total : 5
Encoded by : PtrX
Genre : документальный
Writing application : VirtualDubMod 1.5.10.1 (build 2439/release) VirtualDubMod build 2439/release
Video
ID : 0
Format : MPEG-4 Visual
Format profile : [email protected]
Format settings, BVOP : Yes
Format settings, QPel : No
Format settings, GMC : No warppoints
Format settings, Matrix : Default (MPEG)
Codec ID : XVID
Codec ID/Hint : XviD
Duration : 29mn 38s
Bit rate : 1 508 Kbps
Width : 576 pixels
Height : 432 pixels
Display aspect ratio : 4:3
Frame rate : 25.000 fps
Color space : YUV
Chroma subsampling : 4:2:0
Bit depth : 8 bits
Scan type : Progressive
Compression mode : Lossy
Bits/(Pixel*Frame) : 0.242
Stream size : 320 MiB (92%)
Writing library : XviD 1.1.0 Beta2 (UTC 2005-04-04)
Audio
ID : 1
Format : MPEG Audio
Format version : Version 1
Format profile : Layer 3
Mode : Dual mono
Codec ID : 55
Codec ID/Hint : MP3
Duration : 29mn 35s
Bit rate mode : Constant
Bit rate : 128 Kbps
Channel(s) : 2 channels
Sampling rate : 48.0 KHz
Compression mode : Lossy
Stream size : 27.1 MiB (8%)
Alignment : Aligned on interleaves
Interleave, duration : 40 ms (1.00 video frame)
Interleave, preload duration : 504 ms
Language : Не определен
--

Скриншоты

Создавать темы 06-Ноя-2014 13:35

[Профиль]  [ЛС] 
Показать сообщения:    
Ответить на тему

Текущее время: 18-Ноя 19:07

Часовой пояс: UTC + 5



Вы не можете начинать темы
Вы не можете отвечать на сообщения
Вы не можете редактировать свои сообщения
Вы не можете удалять свои сообщения
Вы не можете голосовать в опросах
Вы не можете прикреплять файлы к сообщениям
Вы не можете скачивать файлы