Черепашки-ниндзя / Teenage Mutant Ninja Turtles (Джонатан Либесман) [2014 г., Фантастика, Фэнтези, Боевик, комедия, Приключения, WEB-DLRip-1080p] [Чистый звук]

Ответить на тему
 

Страх ®

Стаж: 4 года 1 месяц

Сообщений: 1131

Симпатии: 448

Черепашки-ниндзя / Teenage Mutant Ninja Turtles- -Страна: США Жанр: фантастика, фэнтези, боевик, комедия, приключения-Режиссер: Джонатан Либесман / Jonathan Liebesman-В ролях: Меган Фокс, Уилл Арнетт, Уильям Фихтнер, Алан Ричсон, Ноэль Фишер, Пит Пложек, Джонни Ноксвил, Джереми Ховард, Дэнни Вудберн, Тони ШэлубПеревод: Полное Дублирование (Чистый Звук) ОфициальныйОписание:Город нуждается в героях. Тьма окутала Нью-Йорк в виде Шреддера и его зловещего Клана Футов, у которого имеется железный контроль над всеми, от полицейских до политиков. Будущее выглядит мрачным, пока из канализации не поднимается и не раскрывает своё предназначение четвёрка отверженных братьев — Черепашки-ниндзя. Черепашки должны работать вместе с бесстрашным репортёром Эйприл и её саркастическим оператором Верном Фенвиком, чтобы спасти город и разгадать дьявольский план Шреддера.- -Качество: WEB-DRip 1080 p
Формат: MKV Видео кодек: H.26x
Аудио кодек: AC3
Видео: MPEG4 Video (H264) 1912x796 (245:102) 23.976fps
Аудио 1: Dolby AC3 48000Hz stereo 192kbps Русский (Надо переключить)
Аудио 2: Dolby AC3 48000Hz 6ch 384kbps Английский (Оригинал)
Cубтитры: UTF-8 [S: English [eng] Отключаемые
Cубтитры: UTF-8 [S: No subtitles]
-

Media Info

General
Unique ID : 183842330246612838237153415054712823638 (0x8A4EBEB0E6893703A3D4FA1CFAAEDF56)
Complete name : D:\Tracker\Movie Files\Cherepashki.Ninz9.2014.D.WEBDL.1080p.mkv
Format : Matroska
Format version : Version 4 / Version 2
File size : 3.47 GiB
Duration : 1h 41mn
Overall bit rate : 4 891 Kbps
Movie name : EVO
Encoded date : UTC 2014-10-30 06:27:28
Writing application : mkvmerge v7.0.0 ('Where We Going') 64bit built on Jun 9 2014 15:16:27
Writing library : libebml v1.3.0 + libmatroska v1.4.1
Attachements : cover_land.jpg / small_cover.jpg / small_cover_land.jpg / cover.jpg
_STATISTICS_WRITING_APP : mkvmerge v7.0.0 ('Where We Going') 64bit built on Jun 9 2014 15:16:27
_STATISTICS_WRITING_DATE_UTC : 2014-10-30 06:27:28
_STATISTICS_TAGS : BPS DURATION NUMBER_OF_FRAMES NUMBER_OF_BYTES
DURATION : 01:41:30.880000000
NUMBER_OF_FRAMES : 190340
NUMBER_OF_BYTES : 146181120
Video
ID : 1
Format : AVC
Format/Info : Advanced Video Codec
Format profile : [email protected]
Format settings, CABAC : Yes
Format settings, ReFrames : 5 frames
Codec ID : V_MPEG4/ISO/AVC
Duration : 1h 41mn
Bit rate : 4 217 Kbps
Width : 1 912 pixels
Height : 796 pixels
Display aspect ratio : 2.40:1
Frame rate mode : Constant
Frame rate : 23.976 fps
Color space : YUV
Chroma subsampling : 4:2:0
Bit depth : 8 bits
Scan type : Progressive
Bits/(Pixel*Frame) : 0.116
Stream size : 2.99 GiB (86%)
Language : English
Default : Yes
Forced : No
Color primaries : BT.709
Transfer characteristics : BT.709
Matrix coefficients : BT.709
Audio #1
ID : 2
Format : AC-3
Format/Info : Audio Coding 3
Mode extension : CM (complete main)
Format settings, Endianness : Big
Codec ID : A_AC3
Duration : 1h 41mn
Bit rate mode : Constant
Bit rate : 192 Kbps
Channel(s) : 2 channels
Channel positions : Front: L R
Sampling rate : 48.0 KHz
Bit depth : 16 bits
Compression mode : Lossy
Stream size : 139 MiB (4%)
Default : Yes
Forced : No
Audio #2
ID : 3
Format : AC-3
Format/Info : Audio Coding 3
Mode extension : CM (complete main)
Format settings, Endianness : Big
Codec ID : A_AC3
Duration : 1h 41mn
Bit rate mode : Constant
Bit rate : 384 Kbps
Channel(s) : 6 channels
Channel positions : Front: L C R, Side: L R, LFE
Sampling rate : 48.0 KHz
Bit depth : 16 bits
Compression mode : Lossy
Stream size : 279 MiB (8%)
Title : Teenage.Mutant.Ninja.Turtles.2014.1080p.WEB-DL.DD5.1.H264-RARBG
Language : English
Default : No
Forced : No
Text
ID : 4
Format : UTF-8
Codec ID : S_TEXT/UTF8
Codec ID/Info : UTF-8 Plain Text
Language : English
Default : No
Forced : No
Menu
00:00:00.000 : en:Chapter 1
00:02:42.000 : en:Chapter 2
00:06:00.000 : en:Chapter 3
00:11:51.000 : en:Chapter 4
00:16:01.000 : en:Chapter 5
00:22:02.000 : en:Chapter 6
00:28:22.000 : en:Chapter 7
00:34:02.000 : en:Chapter 8
00:38:04.000 : en:Chapter 9
00:42:10.000 : en:Chapter 10
00:48:36.000 : en:Chapter 11
00:55:46.000 : en:Chapter 12
01:00:44.000 : en:Chapter 13
01:07:46.000 : en:Chapter 14
01:15:30.000 : en:Chapter 15
01:24:11.000 : en:Chapter 16
01:30:17.000 : en:Chapter 17
01:34:13.000 : en:Chapter 18

-
Для включения Русской дорожки, нажимаем правую кнопку на плеере, Аудио - Dolby AC3 48000Hz stereo 192kbps-

Скриншоты

-

WOW Скриншоты



Последний раз редактировалось: Страх (2014-11-06 20:57), всего редактировалось 2 раз(а)

Создавать темы 06-Ноя-2014 19:29

[Профиль]  [ЛС] 

FoxSage

Стаж: 4 года 4 месяца

Сообщений: 197

Симпатии: 19

что то очень долго, давно же вышло

Создавать темы 06-Ноя-2014 19:49

[Профиль]  [ЛС] 

Machine

Стаж: 5 лет 2 месяца

Сообщений: 209

Симпатии: 68

892129Перевод: Полное Дублирование (Чистый Звук) Лицензия
Что это, определитесь уже товарищ..
Ну тут однозначно Чистый звук, так как 2-х канальная аудио дорожка.
А по фильму, просто шикарный. Не понимаю почет такие не высокие рейтинги у него.

Создавать темы 06-Ноя-2014 19:53

[Профиль]  [ЛС] 

Страх ®

Стаж: 4 года 1 месяц

Сообщений: 1131

Симпатии: 448

Machine, Чистый Звук (Официальный) в другом месте написано Лицензия, можете через VLC player посмотреть начало, если не понравиться то, ждем другого качества.

Создавать темы 06-Ноя-2014 20:26

[Профиль]  [ЛС] 

Machine

Стаж: 5 лет 2 месяца

Сообщений: 209

Симпатии: 68

Страх, Я уже посмотрел именно в данном качестве, звук и картинка здесь просто великолепные. А вот по поводу Чистого звука или Лицензии, я вам могу точно сказать, что тут Чистый звук (официальный), так как Русская аудио дорожка тут 2-х канальная, а у лицензий всегда идет 6-ти (5.1) канальная.


Последний раз редактировалось: Machine (2014-11-07 18:15), всего редактировалось 1 раз

Создавать темы 06-Ноя-2014 20:50

[Профиль]  [ЛС] 

Страх ®

Стаж: 4 года 1 месяц

Сообщений: 1131

Симпатии: 448

Machine, мммм ну так и напишем тогда

Создавать темы 06-Ноя-2014 20:55

[Профиль]  [ЛС] 

Shock

Стаж: 7 лет

Сообщений: 85

Симпатии: 1

хеш совпал, я на раздаче )

Создавать темы 06-Ноя-2014 21:14

[Профиль]  [ЛС] 

Топик был перенесен из форума Фильмы за 2014 в форум HD-AVC
Mixer City

Создавать темы 07-Ноя-2014 21:09

 

Страх ®

Стаж: 4 года 1 месяц

Сообщений: 1131

Симпатии: 448

Ну понравиться только тем кто любил Черепашек)_ соответственно ретро поколению)
а молодым только спецэффекты да и спецэффекты)

Создавать темы 08-Ноя-2014 18:29

[Профиль]  [ЛС] 

Agnee

Стаж: 5 лет 10 месяцев

Сообщений: 40

Сплинтер тут какой то уродливый. А сам фильм ниче так, 6/10.

Создавать темы 11-Ноя-2014 01:18

[Профиль]  [ЛС] 

Machine

Стаж: 5 лет 2 месяца

Сообщений: 209

Симпатии: 68

Agnee, Сплинтер действительно страшный, а Фильм 10/10.. Обожаю черепашек еще с детства.

Создавать темы 12-Ноя-2014 21:27

[Профиль]  [ЛС] 

xamdullayev

Стаж: 4 года 1 месяц

Сообщений: 20

Симпатии: 1

есть тут кто ??? дайте скорости a plizz

Создавать темы 15-Ноя-2014 20:55

[Профиль]  [ЛС] 
Показать сообщения:    
Ответить на тему

Текущее время: 18-Ноя 05:46

Часовой пояс: UTC + 5



Вы не можете начинать темы
Вы не можете отвечать на сообщения
Вы не можете редактировать свои сообщения
Вы не можете удалять свои сообщения
Вы не можете голосовать в опросах
Вы не можете прикреплять файлы к сообщениям
Вы не можете скачивать файлы