Куколка / Chrysalis (Джон Клейн) [2014 г., Фантастика, ужасы, триллер, драма, WEB-DL (1080p)]

Ответить на тему
 

farid8898 ®

Стаж: 3 года 11 месяцев

Сообщений: 18

Симпатии: 7

Куколка / Chrysalis
Год выпуска: 2014
Страна: США
Жанр: Фантастика, ужасы, триллер, драма
Продолжительность: 01:39:04
Перевод: Любительский двухголосый (den904 & DeadSno)
Субтитры: Русские
Режиссер: Джон Клейн
В ролях: Сара Горски, Коул Саймон, Таня Таи МакБрайд, Клэйтон Стэмпер, Кейт Блэк-Спенс, Ник Кардифф
Описание: Джошуа и Пенелопа - выжившие после распространения смертельной инфекции, уничтожившей человечество 25 лет назад. Когда они сталкиваются с еще одной выжившей, Авирой, их жизни навсегда меняются, поскольку им приходится противостоять неожиданному наплыву зараженных, которые, казалось бы, начали исчезать...
Качество: WEB-DL (1080p)
Формат: MKV
Видео кодек: MPEG-4 AVC
Аудио кодек: AC3
Видео: MPEG-4 AVC, 2038 Кбит/с, 1918х804
Аудио: Русский, Dolby AC3 48000Hz stereo 192kbps (ac3, 48000 Hz, stereo, 192 kb/s) [default,forced]
Аудио: Английский, Dolby AC3 48000Hz stereo 192kbps (ac3, 48000 Hz, stereo, 192 kb/s)]

MediaInfo

: General
Unique ID : 211234519142745374055097766008026699594 (0x9EEA49DFC2085E6CA2DF9DE4C0C6174A)
Complete name :Chrysalis.2014.WEB.DL.1080p.mkv
Format : Matroska
Format version : Version 4 / Version 2
File size : 1.71 GiB
Duration : 1h 39mn
Overall bit rate : 2 471 Kbps
Movie name : Release Group CINEMANIA
Encoded date : UTC 2014-10-25 18:26:33
Writing application : mkvmerge v7.2.0 ('On Every Street') 64bit built on Sep 13 2014 15:52:10
Writing library : libebml v1.3.0 + libmatroska v1.4.1
Video
ID : 1
Format : AVC
Format/Info : Advanced Video Codec
Format profile : [email protected]
Format settings, CABAC : Yes
Format settings, ReFrames : 4 frames
Codec ID : V_MPEG4/ISO/AVC
Duration : 1h 39mn
Bit rate : 2 038 Kbps
Width : 1 918 pixels
Height : 804 pixels
Display aspect ratio : 2.40:1
Frame rate mode : Constant
Frame rate : 23.976 fps
Color space : YUV
Chroma subsampling : 4:2:0
Bit depth : 8 bits
Scan type : Progressive
Bits/(Pixel*Frame) : 0.055
Stream size : 1.41 GiB (82%)
Title : Release Group CINEMANIA
Writing library : x264 core 132 r2309 3b1f1f7
Encoding settings : cabac=1 / ref=3 / deblock=1:0:0 / analyse=0x3:0x113 / me=hex / subme=7 / psy=1 / psy_rd=1.00:0.00 / mixed_ref=1 / me_range=16 / chroma_me=1 / trellis=1 / 8x8dct=1 / cqm=0 / deadzone=21,11 / fast_pskip=1 / chroma_qp_offset=-2 / threads=12 / lookahead_threads=2 / sliced_threads=0 / nr=0 / decimate=1 / interlaced=0 / bluray_compat=0 / constrained_intra=0 / bframes=3 / b_pyramid=2 / b_adapt=1 / b_bias=0 / direct=1 / weightb=1 / open_gop=0 / weightp=2 / keyint=250 / keyint_min=23 / scenecut=40 / intra_refresh=0 / rc_lookahead=40 / rc=crf / mbtree=1 / crf=23.0 / qcomp=0.60 / qpmin=0 / qpmax=69 / qpstep=4 / ip_ratio=1.40 / aq=1:1.00
Default : Yes
Forced : No
Audio #1
ID : 2
Format : AC-3
Format/Info : Audio Coding 3
Mode extension : CM (complete main)
Format settings, Endianness : Big
Codec ID : A_AC3
Duration : 1h 39mn
Bit rate mode : Constant
Bit rate : 192 Kbps
Channel(s) : 2 channels
Channel positions : Front: L R
Sampling rate : 48.0 KHz
Bit depth : 16 bits
Compression mode : Lossy
Delay relative to video : -33ms
Stream size : 136 MiB (8%)
Title : Влад и Снежинка
Language : Russian
Default : Yes
Forced : Yes
Audio #2
ID : 3
Format : AC-3
Format/Info : Audio Coding 3
Mode extension : CM (complete main)
Format settings, Endianness : Big
Codec ID : A_AC3
Duration : 1h 39mn
Bit rate mode : Constant
Bit rate : 192 Kbps
Channel(s) : 2 channels
Channel positions : Front: L R
Sampling rate : 48.0 KHz
Bit depth : 16 bits
Compression mode : Lossy
Delay relative to video : -33ms
Stream size : 136 MiB (8%)
Language : English
Default : No
Forced : No
Text
ID : 4
Format : UTF-8
Codec ID : S_TEXT/UTF8
Codec ID/Info : UTF-8 Plain Text
Language : Russian
Default : Yes
Forced : Yes

Скриншоты





Создавать темы 08-Ноя-2014 01:55

[Профиль]  [ЛС] 

Топик был перенесен из форума Фильмы за 2014 в форум HD-AVC
Mixer City

Создавать темы 08-Ноя-2014 20:53

 
Показать сообщения:    
Ответить на тему

Текущее время: 20-Сен 16:11

Часовой пояс: UTC + 5



Вы не можете начинать темы
Вы не можете отвечать на сообщения
Вы не можете редактировать свои сообщения
Вы не можете удалять свои сообщения
Вы не можете голосовать в опросах
Вы не можете прикреплять файлы к сообщениям
Вы не можете скачивать файлы