Дракула / Dracula Untold (Гари Шор) [2014 г., ужасы, фэнтези, боевик, драма, военный, HDRip]

Ответить на тему
 

uzcustomer ®

Стаж: 5 лет 6 месяцев

Сообщений: 61

Симпатии: 39

Дракула / Dracula Untold
Год выпуска: 2014
Жанр: ужасы, фэнтези, боевик, драма, военный
Продолжительность: 01:31:14
Режиссер: Гари Шор
В ролях: Люк Эванс
Сара Гадон
Доминик Купер
Арт Паркинсон
Чарльз Дэнс
Дайармейд Мерта
Пол Кэй
Уильям Хьюстон
Ной Хантли
Ронан Вайберт
Описание: Влад Дракула был величайшим правителем, доблестным воином и страстным мужчиной. Но судьба свела его с врагом, коварство которого не знало границ. И тогда Дракула заключил сделку — нечеловеческая сила в обмен на самую малость — бессмертную душу…
Доп. информация: General
Complete name : D:\Torrent\Dracula.Untold.2014.HDRip.XViD-juggs[ETRG]\Dracula.Untold.2014.HDRip.XViD-juggs[ETRG].avi
Format : AVI
Format/Info : Audio Video Interleave
File size : 698 MiB
Duration : 1h 31mn
Overall bit rate : 1 070 Kbps
Writing application : VirtualDubMod 1.5.10.2 (build 2540/release)
Writing library : VirtualDubMod build 2540/release
Video
ID : 0
Format : MPEG-4 Visual
Format profile : Advanced [email protected]
Format settings, BVOP : 2
Format settings, QPel : No
Format settings, GMC : No warppoints
Format settings, Matrix : Default (H.263)
Muxing mode : Packed bitstream
Codec ID : XVID
Codec ID/Hint : XviD
Duration : 1h 31mn
Bit rate : 930 Kbps
Width : 640 pixels
Height : 352 pixels
Display aspect ratio : 16:9
Frame rate : 30.000 fps
Color space : YUV
Chroma subsampling : 4:2:0
Bit depth : 8 bits
Scan type : Progressive
Compression mode : Lossy
Bits/(Pixel*Frame) : 0.138
Stream size : 607 MiB (87%)
Writing library : XviD 66
Audio
ID : 1
Format : MPEG Audio
Format version : Version 1
Format profile : Layer 3
Mode : Joint stereo
Mode extension : MS Stereo
Codec ID : 55
Codec ID/Hint : MP3
Duration : 1h 31mn
Bit rate mode : Constant
Bit rate : 128 Kbps
Channel(s) : 2 channels
Sampling rate : 48.0 KHz
Compression mode : Lossy
Stream size : 83.5 MiB (12%)
Alignment : Aligned on interleaves
Interleave, duration : 33 ms (1.00 video frame)
Interleave, preload duration : 504 ms
Writing library : LAME3.99r
Encoding settings : -m j -V 4 -q 3 -lowpass 17 -b 128
Качество: HDRip
Формат: AVI
Видео кодек: XviD
Аудио кодек: MP3
Видео: MPEG-4 Visual 930 Kbps 640x352
Аудио: MPEG Audio 128 Kbps 48.0 KHz

Скриншоты






Последний раз редактировалось: uzcustomer (2014-11-09 20:17), всего редактировалось 1 раз

Создавать темы 09-Ноя-2014 12:59

[Профиль]  [ЛС] 

kodom

Стаж: 4 года 5 месяцев

Сообщений: 3

дайте скорость пж

Создавать темы 09-Ноя-2014 13:12

[Профиль]  [ЛС] 

tron

Стаж: 3 года 11 месяцев

Сообщений: 31

Симпатии: 4

uzcustomer, Ты крут спосибо огромное

Создавать темы 09-Ноя-2014 14:31

[Профиль]  [ЛС] 

Eldar9988

Стаж: 4 года 2 месяца

Сообщений: 3

Звук как?

Создавать темы 09-Ноя-2014 14:51

[Профиль]  [ЛС] 

uzcustomer ®

Стаж: 5 лет 6 месяцев

Сообщений: 61

Симпатии: 39

Eldar9988, Фильм без перевода

Создавать темы 09-Ноя-2014 15:12

[Профиль]  [ЛС] 

bekzod96

Стаж: 5 лет 3 месяца

Сообщений: 2

Какой HD?...по скринам водно что качество не очень

Создавать темы 10-Ноя-2014 10:52

[Профиль]  [ЛС] 

mansurbek1133

Стаж: 4 года 10 месяцев

Сообщений: 2

uzcustomer, Помогите скачат Дракула

Создавать темы 06-Ноя-2016 22:24

[Профиль]  [ЛС] 
Показать сообщения:    
Ответить на тему

Текущее время: 21-Сен 08:29

Часовой пояс: UTC + 5



Вы не можете начинать темы
Вы не можете отвечать на сообщения
Вы не можете редактировать свои сообщения
Вы не можете удалять свои сообщения
Вы не можете голосовать в опросах
Вы не можете прикреплять файлы к сообщениям
Вы не можете скачивать файлы