Если я останусь / If I Stay (Р.Дж. Катлер) [2014 г., драма, BDRip]

Ответить на тему
 

uzcustomer ®

Стаж: 5 лет 7 месяцев

Сообщений: 61

Симпатии: 39

Если я останусь / If I Stay
Год выпуска: 2014
Жанр: драма
Продолжительность: 01:46:40
Субтитры: Есть (english)
Режиссер: Р.Дж. Катлер
В ролях: Хлоя Грейс Морец
Мирей Инос
Джейми Блэкли
Джошуа Леонард
Лиана Либерато
Стейси Кич
Габриель Роз
Джейкоб Дейвис
Али Милнер
Аиша Хиндс
Описание: Мия — талантливая девушка, влюбленная в классическую музыку, в свою виолончель и рокера Адама. Но после автокатастрофы Мия оказывается в коме. Пока тело девушки лежит в больнице, ее душа должна решить, хочет ли она жить дальше или же лучше отправиться в мир иной вслед за своими родными.
Доп. информация: General
Complete name : D:\Torrent\If I Stay (2014)\If.I.Stay.2014.720p.BluRay.x264.YIFY.mp4
Format : MPEG-4
Format profile : Base Media
Codec ID : isom
File size : 812 MiB
Duration : 1h 46mn
Overall bit rate mode : Variable
Overall bit rate : 1 064 Kbps
Encoded date : UTC 2014-11-07 23:48:08
Tagged date : UTC 2014-11-07 23:48:08
Video
ID : 1
Format : AVC
Format/Info : Advanced Video Codec
Format profile : [email protected]
Format settings, CABAC : Yes
Format settings, ReFrames : 4 frames
Codec ID : avc1
Codec ID/Info : Advanced Video Coding
Duration : 1h 46mn
Bit rate : 966 Kbps
Maximum bit rate : 12.4 Mbps
Width : 1 280 pixels
Height : 536 pixels
Display aspect ratio : 2.40:1
Frame rate mode : Constant
Frame rate : 23.976 fps
Color space : YUV
Chroma subsampling : 4:2:0
Bit depth : 8 bits
Scan type : Progressive
Bits/(Pixel*Frame) : 0.059
Stream size : 737 MiB (91%)
Writing library : x264 core 142 r2479 dd79a61
Encoding settings : cabac=1 / ref=4 / deblock=1:-1:-1 / analyse=0x3:0x133 / me=umh / subme=9 / psy=1 / psy_rd=1.00:0.15 / mixed_ref=1 / me_range=24 / chroma_me=1 / trellis=2 / 8x8dct=1 / cqm=0 / deadzone=21,11 / fast_pskip=0 / chroma_qp_offset=-3 / threads=48 / lookahead_threads=4 / sliced_threads=0 / nr=0 / decimate=1 / interlaced=0 / bluray_compat=0 / constrained_intra=0 / bframes=3 / b_pyramid=2 / b_adapt=2 / b_bias=0 / direct=3 / weightb=1 / open_gop=0 / weightp=2 / keyint=250 / keyint_min=23 / scenecut=40 / intra_refresh=0 / rc_lookahead=60 / rc=2pass / mbtree=1 / bitrate=966 / ratetol=1.0 / qcomp=0.60 / qpmin=0 / qpmax=69 / qpstep=4 / cplxblur=20.0 / qblur=0.5 / vbv_maxrate=31250 / vbv_bufsize=31250 / nal_hrd=none / filler=0 / ip_ratio=1.40 / aq=1:1.00
Encoded date : UTC 2014-11-07 23:48:08
Tagged date : UTC 2014-11-07 23:48:14
Color primaries : BT.709
Matrix coefficients : BT.709
Audio
ID : 2
Format : AAC
Format/Info : Advanced Audio Codec
Format profile : LC
Codec ID : 40
Duration : 1h 46mn
Bit rate mode : Variable
Bit rate : 93.8 Kbps
Maximum bit rate : 103 Kbps
Channel(s) : 2 channels
Channel positions : Front: L R
Sampling rate : 48.0 KHz
Compression mode : Lossy
Stream size : 71.6 MiB (9%)
Language : English
Encoded date : UTC 2014-11-07 23:48:12
Tagged date : UTC 2014-11-07 23:48:14
Качество: BDrip
Формат: MPEG
Видео: AVC 966 Kbps 12.4 Mbps 1280x536
Аудио: English AAC 93.8 Kbps

Скриншоты






Последний раз редактировалось: uzcustomer (2014-11-28 23:55), всего редактировалось 1 раз

Создавать темы 09-Ноя-2014 18:50

[Профиль]  [ЛС] 

uzumakinaruto_2012

Стаж: 4 года 5 месяцев

Сообщений: 5

где дорожку на русском скачать можно*(

Создавать темы 10-Ноя-2014 20:55

[Профиль]  [ЛС] 

Grock

Стаж: 6 лет 8 месяцев

Сообщений: 637

Симпатии: 113

Качество: BlueRay
uzcustomer, Такого качества нет, это формат видео диска, а не качество, в данном релизе качество у вас DVDRip. Пошу исправить также тех данные картины

Создавать темы 28-Ноя-2014 15:19

[Профиль]  [ЛС] 

Страх

Стаж: 4 года

Сообщений: 1131

Симпатии: 448

uzcustomer, Вот Grock, говорит правильно это формат диска, а само качество у вас BDRip исправьте

Создавать темы 28-Ноя-2014 22:38

[Профиль]  [ЛС] 
Показать сообщения:    
Ответить на тему

Текущее время: 23-Окт 22:17

Часовой пояс: UTC + 5



Вы не можете начинать темы
Вы не можете отвечать на сообщения
Вы не можете редактировать свои сообщения
Вы не можете удалять свои сообщения
Вы не можете голосовать в опросах
Вы не можете прикреплять файлы к сообщениям
Вы не можете скачивать файлы