Мой маленький пони: Девочки из Эквестрии / My Little Pony. Equestria Girls (Джэйсон Тиссен / Jayson Thiessen) [2013, Приключения, комедия, семейный, фэнтези, BDRip] Dub (Карусель)

Ответить на тему
 

yarik ®

Стаж: 4 года 10 месяцев

Сообщений: 225

Симпатии: 123

Мой маленький пони: Девочки из Эквестрии
My Little Pony. Equestria Girls

Страна: США, Канада
Жанр: Приключения, комедия, семейный, фэнтези
Продолжительность: 01:13:17
Год выпуска: 2013
Перевод: Профессиональный (дублированный) (Первый канал - Всемирная сеть)
Режиссёр: Джэйсон Тиссен / Jayson Thiessen
Роли озвучивали: Тара Стронг, Эшли Болл, Андреа Либман, Табита Сен-Жермен, Кэти Уэслак, Николь Оливер и другие.
Роли дублировали: Ольга Голованова, Лариса Брохман, Елена Чебатуркина, Дарья Фролова, Ольга Шорохова, Никита Прозоровский, Евгений Вальц.
Студия: Hasbro Studios, DHX Media
Описание: Захватывающие приключения Сумеречной Искорки, принявшей облик девочки, в мире людей. Эта история начинается с того, что пони по имени Сансет Шиммер появляется из волшебного зеркала. Она намерена украсть магическую корону Искорки, без которой нарушится баланс Элемента Гармонии. Пони дерутся за корону, она отлетает в зеркало и пропадает, Сансет Шиммер следует за ней. От принцессы Селестии Искорка узнает, что волшебное зеркало ведет в другой мир. Наставница поручает любимой ученице отправиться за пони-похитительницей, чтобы вернуть драгоценную корону. Пройдя через зеркало, Искорка и Спайк оказываются в вымышленном мире, населённом людьми. Пони принимает облик девочки-подростка, а дракончик — облик собаки. В незнакомом мире героине предстоит поступить в старшую школу и познакомиться с девочками, которые напоминают ей оставшихся в Эквестрии подруг, — Рарити, Флаттершай, Эпплджек, Радугу Дэш и Пинки Пай. С их помощью Искорка постарается выполнить главную миссию своего путешествия — отыскать и вернуть пропавшую корону.
 
Качество: BDRip (Исходник)
Формат: AVI
Видео: XviD, 720x400, 23.976 fps, 2189 kbps
Аудио 1 Rus: AC3 48 kHz, 2 ch, 192 kbps (Дубляж | По заказу ЗАО "Первый канал - Всемирная сеть")
Аудио 2 Eng: AC3 48 kHz, 6 ch, 448 kbps (Original)
Субтитры: отсутствуют

Скриншоты





Подробные технические данные

General
Complete name                            : /home/evgeniy/Видео/mlp.equestria.girls.2013.bdrip.avi
Format                                   : AVI
Format/Info                              : Audio Video Interleave
File size                                : 1.37 GiB
Duration                                 : 1h 13mn
Overall bit rate                         : 2 671 Kbps
Writing application                      : VirtualDubMod 1.5.10.2 (build 2540/release)
Writing library                          : VirtualDubMod build 2540/release
Video
ID                                       : 0
Format                                   : MPEG-4 Visual
Format profile                           : Advanced [email protected]
Format settings, BVOP                    : No
Format settings, QPel                    : No
Format settings, GMC                     : No warppoints
Format settings, Matrix                  : Custom
Codec ID                                 : XVID
Codec ID/Hint                            : XviD
Duration                                 : 1h 13mn
Bit rate                                 : 2 017 Kbps
Width                                    : 720 pixels
Height                                   : 400 pixels
Display aspect ratio                     : 16:9
Frame rate                               : 23.976 fps
Color space                              : YUV
Chroma subsampling                       : 4:2:0
Bit depth                                : 8 bits
Scan type                                : Progressive
Compression mode                         : Lossy
Bits/(Pixel*Frame)                       : 0.292
Stream size                              : 1.03 GiB (76%)
Writing library                          : XviD 64
Audio #1
ID                                       : 1
Format                                   : AC-3
Format/Info                              : Audio Coding 3
Mode extension                           : CM (complete main)
Format settings, Endianness              : Big
Codec ID                                 : 2000
Duration                                 : 1h 13mn
Bit rate mode                            : Constant
Bit rate                                 : 192 Kbps
Channel(s)                               : 2 channels
Channel positions                        : Front: L R
Sampling rate                            : 48.0 KHz
Bit depth                                : 16 bits
Compression mode                         : Lossy
Stream size                              : 101 MiB (7%)
Alignment                                : Split accross interleaves
Interleave, duration                     : 42 ms (1.00 video frame)
Interleave, preload duration             : 500 ms
Audio #2
ID                                       : 2
Format                                   : AC-3
Format/Info                              : Audio Coding 3
Mode extension                           : CM (complete main)
Format settings, Endianness              : Big
Codec ID                                 : 2000
Duration                                 : 1h 13mn
Bit rate mode                            : Constant
Bit rate                                 : 448 Kbps
Channel(s)                               : 6 channels
Channel positions                        : Front: L C R, Side: L R, LFE
Sampling rate                            : 48.0 KHz
Bit depth                                : 16 bits
Compression mode                         : Lossy
Stream size                              : 235 MiB (17%)
Alignment                                : Split accross interleaves
Interleave, duration                     : 42 ms (1.00 video frame)
Interleave, preload duration             : 500 ms
---Мультфильм является продолжением третьего сезона.
Скачать можно тут


Последний раз редактировалось: yarik (2015-01-05 03:19), всего редактировалось 2 раз(а)

Создавать темы 10-Ноя-2014 18:35

[Профиль]  [ЛС] 

yarik ®

Стаж: 4 года 10 месяцев

Сообщений: 225

Симпатии: 123

Продолжение Мой маленький пони: Девочки из Эквестрии - Радужный рок

Создавать темы 05-Янв-2015 03:21

[Профиль]  [ЛС] 
Показать сообщения:    
Ответить на тему

Текущее время: 14-Дек 13:18

Часовой пояс: UTC + 5



Вы не можете начинать темы
Вы не можете отвечать на сообщения
Вы не можете редактировать свои сообщения
Вы не можете удалять свои сообщения
Вы не можете голосовать в опросах
Вы не можете прикреплять файлы к сообщениям
Вы не можете скачивать файлы