Подпольная империя / Boardwalk Empire / Сезон: 5 / Серии: 1-8 из 8 (Тимоти Ван Паттен, Аллен Култер) [2014, драма, криминал, HDTVRip] AVO (Сербин)

Ответить на тему
 

Jeneva ®

Стаж: 5 лет 7 месяцев

Сообщений: 47

Симпатии: 70

Подпольная империя / Boardwalk Empire
-Год выпуска: 2014
Страна: США
Жанр: драма, криминал
Продолжительность: ~ 00:55:00
Перевод: Авторский (одноголосый закадровый) - Юрий Сербин--Режиссер: Тимоти Ван Паттен, Аллен Култер, Джереми Подесва--В ролях: Стив Бушеми, Майкл Питт, Тодд Фредерикс, Анна Катарина, Уильям Хилл, Джек Хьюстон, Николас Мартино, Пьер О'Фэррелл, Кен Следик, Ши Уигхэм и др.--Описание: 1920 год. Через несколько часов Атлантик-Сити — столица развлечений и порока, как и вся Америка, вступит в эпоху «Сухого закона». Енох «Наки» Томпсон, днем — городской казначей, а ночью — хитроумный гангстер со связями на самом «верху», решает воспользоваться ситуацией и получить баснословные прибыли на подпольной торговле алкоголем. Однако не он один жаждет обогатиться на новом промысле…--Качество: HDTVRip
Формат: AVI
Видео кодек: XviD
Аудио кодек: AC3
Видео: 720x400 (16:9), 23,976 fps, ~1500 kbps, 0.220 bit/pixel
Аудио: AC3, 48 kHz, 6 ch, 384 kbps - Юрий Сербин

Знаете ли вы, что...

Реально существовавший Енох «Наки» Джонсон (Enoch L. Johnson) послужил прототипом для «Наки» Томпсона. Внешне Джонсон совершенно не походил на актера Стива Бушеми: это был представительный мужчина, высокий и грузный, с лысиной, — и напоминал скорее персонажа Тони Сопрано из сериала «Клан Сопрано». Создатель «Подпольной империи» Теренс Уинтер, также работавший над сценариями серий для «Клана Сопрано», хотел создать персонаж «Наки», отличающийся от образа, реального или сыгранного Джеймсом Гандольфини.
Для рекламы второго сезона сериала, начиная с 25 сентября 2011 года, в Нью-Йоркском метро были выпущены на линию исторические вагоны типа «Lo-V» (Low Voltage). Они выпускались с 1916 по 1925 год, и эксплуатировались до 1969 года. В составе исторического поезда были использованы вагоны N 5290, 5292 постройки 1917 года, и вагоны N 5443, 5483 постройки 1924 года. Вместо станции отправления и назначения, на вагонах были установлены таблички с рекламой сериала, рекламными постерами сериала также были обклеены вагоны изнутри. Исторический поезд ходил по маршруту IRT, от станций 42nd Street до станции 96th Street, с единственной остановкой на станции 72nd Street.
Атлантик-Сити двадцатых годов был в точности воссоздан в Бруклине (Нью-Йорк). Бюджет премьерной серии составил $18 млн, из которых $5 млн пошли на воссоздание городского квартала со всеми внутренними интерьерами, а также сооружение дощатого настила набережной длиной около 91,5 метров. Исполнительный продюсер и режиссер пилотной серии Мартин Скорсезе был настолько требователен в плане точности, что, например, настаивал, чтобы доски для настила были точно такого же размера, как они были в Атлантик-Сити в то время.

Скриншоты





MediaInfo

Общее
Формат : AVI
Формат/Информация : Audio Video Interleave
Размер файла : 756 Мбайт
Продолжительность : 55 м.
Общий поток : 1913 Кбит/сек
Программа кодирования : VirtualDubMod 1.5.10.3 | www.virtualdub-fr.org || (build 2550/release)
Библиотека кодирования : VirtualDubMod build 2550/release
Видео
Идентификатор : 0
Формат : MPEG-4 Visual
Профиль формата : Advanced [email protected]
Параметр BVOP формата : Да
Параметр QPel формата : Нет
Параметр GMC формата : Без точки перехода
Параметр матрицы формата : Default (H.263)
Идентификатор кодека : XVID
Идентификатор кодека/Подсказка : XviD
Продолжительность : 55 м.
Битрейт : 1520 Кбит/сек
Ширина : 720 пикселей
Высота : 400 пикселей
Соотношение сторон : 16:9
Частота кадров : 23,976 кадра/сек
Цветовое пространство : YUV
Субдискретизация насыщенности : 4:2:0
Битовая глубина : 8 бит
Тип развёртки : Прогрессивная
Метод сжатия : С потерями
Бит/(Пиксели*Кадры) : 0.220
Размер потока : 600 Мбайт (79%)
Библиотека кодирования : XviD 73
Аудио
Идентификатор : 1
Формат : AC-3
Формат/Информация : Audio Coding 3
Расширение режима : CM (complete main)
Параметр Endianness формата : Big
Идентификатор кодека : 2000
Продолжительность : 55 м.
Вид битрейта : Постоянный
Битрейт : 384 Кбит/сек
Каналы : 6 каналов
Расположение каналов : Front: L C R, Side: L R, LFE
Частота : 48,0 КГц
Битовая глубина : 16 бит
Метод сжатия : С потерями
Размер потока : 152 Мбайт (20%)
Выравнивание : Разделение по промежуткам
Продолжительность промежутка : 42 мс. (1,00 видеокадр)
Время предзагрузки промежутка : 500 мс.

Создавать темы 10-Ноя-2014 19:15

[Профиль]  [ЛС] 

fraus

Стаж: 6 лет 6 месяцев

Сообщений: 48

Симпатии: 1

Раздача будет?

Создавать темы 18-Янв-2015 09:37

[Профиль]  [ЛС] 

fraus

Стаж: 6 лет 6 месяцев

Сообщений: 48

Симпатии: 1

Народ ну начните раздачу

Создавать темы 25-Янв-2015 20:57

[Профиль]  [ЛС] 
Показать сообщения:    
Ответить на тему

Текущее время: 20-Окт 15:31

Часовой пояс: UTC + 5



Вы не можете начинать темы
Вы не можете отвечать на сообщения
Вы не можете редактировать свои сообщения
Вы не можете удалять свои сообщения
Вы не можете голосовать в опросах
Вы не можете прикреплять файлы к сообщениям
Вы не можете скачивать файлы