Дракула / Dracula Untold (Гари Шор / Gary Shore) [2014, США, Драма, Фэнтези, Ужасы, WEBRip-720p] [Чистый звук]

Ответить на тему
 

Suxrob89 ®

Стаж: 7 лет 2 месяца

Сообщений: 933

Симпатии: 564

-Дракула / Dracula Untold- Страна: США
Жанр: Драма, Фэнтези, Ужасы
Год выпуска: 2014
Продолжительность: 01:31:31
Перевод: Профессиональный (дублированный) [Чистый звук]
Cубтитры: нет-Режиссер: Гари Шор / Gary Shore-В ролях: Люк Эванс, Сара Гадон, Доминик Купер, Арт Паркинсон, Чарльз Дэнс, Дайармейд Мерта, Пол Кэй, Уильям Хьюстон, Ной Хантли, Ронан Вайберт-Описание: Влад Дракула был величайшим правителем, доблестным воином и страстным мужчиной. Но судьба свела его с врагом, коварство которого не знало границ. И тогда Дракула заключил сделку — нечеловеческая сила в обмен на самую малость — бессмертную душу…- -Качество видео: WEBRip-720p
Формат видео: MKV
Видео: AVC, 1280x720 (16:9), 25.000 fps, 3 514 kbps
Аудио: 48 kHz, AC3 Dolby Digital, 2/0 (L,R) ch, ~192 kbps

MediaInfo

J:\Drakula..2014.D.WEBRip.720p.mkv
General
Unique ID : 233097412273667554207492410417147080029 (0xAF5CEDBA6A01F57A9C6A079160DCED5D)
Complete name : J:\Drakula..2014.D.WEBRip.720p.mkv
Format : Matroska
Format version : Version 4 / Version 2
File size : 2.54 GiB
Duration : 1h 31mn
Overall bit rate : 3 977 Kbps
Encoded date : UTC 2014-11-09 22:33:58
Writing application : mkvmerge v7.0.0 ('Where We Going') 64bit built on Jun 9 2014 15:16:27
Writing library : libebml v1.3.0 + libmatroska v1.4.1
_STATISTICS_WRITING_APP : mkvmerge v7.0.0 ('Where We Going') 64bit built on Jun 9 2014 15:16:27
_STATISTICS_WRITING_DATE_UTC : 2014-11-09 22:33:58
_STATISTICS_TAGS : BPS DURATION NUMBER_OF_FRAMES NUMBER_OF_BYTES
DURATION : 01:31:31.392000000
NUMBER_OF_FRAMES : 171606
NUMBER_OF_BYTES : 131793408
Video #1
ID : 1
Format : AVC
Format/Info : Advanced Video Codec
Format profile : [email protected]
Format settings, CABAC : Yes
Format settings, ReFrames : 4 frames
Codec ID : V_MPEG4/ISO/AVC
Bit rate : 3 514 Kbps
Nominal bit rate : 2 520 Kbps
Width : 1 280 pixels
Height : 720 pixels
Display aspect ratio : 16:9
Frame rate mode : Variable
Original frame rate : 25.000 fps
Color space : YUV
Chroma subsampling : 4:2:0
Bit depth : 8 bits
Scan type : Progressive
Bits/(Pixel*Frame) : 0.109
Writing library : x264 core 130 r2274bm c832fe9
Encoding settings : cabac=1 / ref=3 / deblock=1:-1:-1 / analyse=0x3:0x113 / me=hex / subme=7 / psy=1 / psy_rd=1.00:0.15 / mixed_ref=1 / me_range=16 / chroma_me=1 / trellis=1 / 8x8dct=1 / cqm=0 / deadzone=21,11 / fast_pskip=1 / chroma_qp_offset=-3 / threads=12 / lookahead_threads=2 / sliced_threads=0 / nr=0 / decimate=1 / interlaced=0 / bluray_compat=0 / constrained_intra=0 / bframes=3 / b_pyramid=2 / b_adapt=1 / b_bias=0 / direct=1 / weightb=1 / open_gop=0 / weightp=2 / keyint=250 / keyint_min=25 / scenecut=40 / intra_refresh=0 / rc_lookahead=40 / rc=abr / mbtree=1 / bitrate=2520 / ratetol=1.0 / qcomp=0.60 / qpmin=0 / qpmax=69 / qpstep=4 / ip_ratio=1.40 / aq=1:1.00
Default : Yes
Forced : No
Audio #2
ID : 2
Format : AC-3
Format/Info : Audio Coding 3
Mode extension : CM (complete main)
Format settings, Endianness : Big
Codec ID : A_AC3
Duration : 1h 31mn
Bit rate mode : Constant
Bit rate : 192 Kbps
Channel count : 2 channels
Channel positions : Front: L R
Sampling rate : 48.0 KHz
Bit depth : 16 bits
Compression mode : Lossy
Stream size : 126 MiB (5%)
Default : Yes
Forced : No
Audio #3
ID : 3
Format : AC-3
Format/Info : Audio Coding 3
Mode extension : CM (complete main)
Format settings, Endianness : Big
Codec ID : A_AC3
Duration : 1h 31mn
Bit rate mode : Constant
Bit rate : 192 Kbps
Channel count : 2 channels
Channel positions : Front: L R
Sampling rate : 44.1 KHz
Bit depth : 16 bits
Compression mode : Lossy
Stream size : 126 MiB (5%)
Language : English
Default : No
Forced : No

Скриншот c названием фильма

Скриншоты



Последний раз редактировалось: Suxrob89 (2014-11-11 19:03), всего редактировалось 1 раз

Создавать темы 11-Ноя-2014 11:17

[Профиль]  [ЛС] 

DX-T-1000

Стаж: 5 лет 9 месяцев

Сообщений: 26

спасибо за фильм, автор ждем раздачу

Создавать темы 11-Ноя-2014 12:03

[Профиль]  [ЛС] 

Grock

Стаж: 6 лет 8 месяцев

Сообщений: 637

Симпатии: 113

Дракула / Dracula Untold (Гари Шор) [2014 г., ужасы, фэнтези, боевик, драма, военный, WEBRip] [Чистый звук]

Создавать темы 11-Ноя-2014 15:31

[Профиль]  [ЛС] 

Den27778

Стаж: 3 года 9 месяцев

Сообщений: 32

дай скорость

Создавать темы 11-Ноя-2014 19:43

[Профиль]  [ЛС] 

Топик был перенесен из форума CamRip\Telesync\SATRip\TVRip в форум HD-AVC
Mixer City

Создавать темы 11-Ноя-2014 21:49

 

pirat

Стаж: 5 лет 6 месяцев

Сообщений: 216

Симпатии: 63

так это ж тот самый рыбак из хоббита.....вот оно что....

Создавать темы 11-Ноя-2014 22:16

[Профиль]  [ЛС] 

Uzb_Blitz

Стаж: 3 года 9 месяцев

Сообщений: 15

Симпатии: 2

даете скорость

Создавать темы 03-Янв-2015 14:38

[Профиль]  [ЛС] 
Показать сообщения:    
Ответить на тему

Текущее время: 23-Окт 11:18

Часовой пояс: UTC + 5



Вы не можете начинать темы
Вы не можете отвечать на сообщения
Вы не можете редактировать свои сообщения
Вы не можете удалять свои сообщения
Вы не можете голосовать в опросах
Вы не можете прикреплять файлы к сообщениям
Вы не можете скачивать файлы