Страховщик / Automata (Габе Ибаньес / Gabe Ibáñez) [2014, Испания, Болгария, Фантастика, триллер, BDRemux 1080p] Dub [iTunes] + Original Eng + Sub rus, eng

Ответить на тему
 

yusuf.0088 ®

Стаж: 3 года 11 месяцев

Сообщений: 116

Симпатии: 69

Страховщик / Automata
«Ваше время подошло к концу. Наше только начинается»
-- Год выпуска: 2014
Страна: Испания, Болгария
Жанр: Фантастика, триллер
Продолжительность: 01:49:54--Перевод: Профессиональный (полное дублирование) [iTunes]
Оригинальная дорожка: Английский
Cубтитры: Русскиe, aнглийскиe--Режиссер: Габе Ибаньес / Gabe Ibáñez--В ролях: Антонио Бандерас, Биргитта Йорт Сёренсен, Мелани Гриффит, Дилан МакДермотт, Роберт Форстер, Тим МакИннерни, Энди Найман, Дэвид Райалл, Эндрю Тирнан, Криста Кэмпбелл--Описание: 2044-й год. После природной катастрофы население Земли уменьшилось до 21 миллиона человек. Большую часть суши теперь занимает радиоактивная пустыня, а выжившие скрываются в городах за высокими стенами и искусственными облаками, которые созданы с помощью роботов — Пилигримов. Главный герой фильма — страховой агент компании по изготовлению роботов Жак Вокан обнаруживает, что изобретаемые роботы создаются не для эксплуатации, а для истребления.-- --Качество: BDRemux 1080p
Формат: mkv--Видео: MPEG-4 AVC / 29322 Кбит/с, 1920x1080
Аудио 1: Русский AC3 6 ch / 384 Кбит/с / 48КГц |Дубляж|
Аудио 2: Английский AC3 6 ch / 448 Кбит/с / 48КГц |Original|
Аудио 2: Английский True-HD 6 ch / 3198 Кбит/с / 48КГц |Original|
Сохранены оригинальные чаптеры как на Blu-ray

Media Info

Формат : Matroska
Версия формата : Version 2
Размер файла : 17,0 Гбайт
Продолжительность : 1 ч. 49 м.
Режим общего битрейта : Переменный
Общий поток : 22,1 Мбит/сек
Название фильма : Страховщик.2014.Cборка: ollan
Дата кодирования : UTC 2014-11-04 15:11:36
Программа кодирования : mkvmerge v5.6.0 ('Kenya Kane') built on May 27 2012 16:44:04
Библиотека кодирования : libebml v1.2.3 + libmatroska v1.3.0
Видео
Идентификатор : 1
Формат : AVC
Формат/Информация : Advanced Video Codec
Профиль формата : [email protected]
Параметр CABAC формата : Да
Параметр ReFrames формата : 4 кадра
Идентификатор кодека : V_MPEG4/ISO/AVC
Продолжительность : 1 ч. 49 м.
Вид битрейта : Переменный
Максимальный битрейт : 35,0 Мбит/сек
Ширина : 1920 пикселей
Высота : 1080 пикселей
Соотношение сторон : 16:9
Режим частоты кадров : Постоянный
Частота кадров : 23,976 кадра/сек
Стандарт вещания : NTSC
Цветовое пространство : YUV
Субдискретизация насыщенности : 4:2:0
Битовая глубина : 8 бит
Тип развёртки : Прогрессивная
Default : Да
Forced : Нет
Основные цвета : BT.709
Характеристики трансфера : BT.709
Коэффициенты матрицы : BT.709
Аудио #1
Идентификатор : 2
Формат : AC-3
Формат/Информация : Audio Coding 3
Расширение режима : CM (complete main)
Параметр Endianness формата : Big
Идентификатор кодека : A_AC3
Продолжительность : 1 ч. 49 м.
Вид битрейта : Постоянный
Битрейт : 384 Кбит/сек
Каналы : 6 каналов
Расположение каналов : Front: L C R, Side: L R, LFE
Частота : 48,0 КГц
Битовая глубина : 16 бит
Метод сжатия : С потерями
Размер потока : 302 Мбайт (2%)
Заголовок : Дублированный (iTunes Russia)
Язык : Russian
Default : Да
Forced : Нет
Аудио #2
Идентификатор : 3
Формат : AC-3
Формат/Информация : Audio Coding 3
Расширение режима : CM (complete main)
Параметр Endianness формата : Big
Идентификатор кодека : A_AC3
Продолжительность : 1 ч. 49 м.
Вид битрейта : Постоянный
Битрейт : 448 Кбит/сек
Каналы : 6 каналов
Расположение каналов : Front: L C R, Side: L R, LFE
Частота : 48,0 КГц
Битовая глубина : 16 бит
Метод сжатия : С потерями
Размер потока : 352 Мбайт (2%)
Язык : English
Default : Нет
Forced : Нет
Аудио #3
Идентификатор : 4
Формат : TrueHD
Идентификатор кодека : A_TRUEHD
Продолжительность : 1 ч. 49 м.
Вид битрейта : Переменный
Максимальный битрейт : 4500 Кбит/сек
Каналы : 6 каналов
Расположение каналов : Front: L C R, Side: L R, LFE
Частота : 48,0 КГц
Метод сжатия : Без потерь
Язык : English
Default : Нет
Forced : Нет
Текст #1
Идентификатор : 5
Формат : UTF-8
Идентификатор кодека : S_TEXT/UTF8
Идентификатор кодека/Информация : UTF-8 Plain Text
Язык : Russian
Default : Нет
Forced : Нет
Текст #2
Идентификатор : 6
Формат : UTF-8
Идентификатор кодека : S_TEXT/UTF8
Идентификатор кодека/Информация : UTF-8 Plain Text
Язык : English
Default : Нет
Forced : Нет
Меню
00:00:00.000 : en:Chapter 01
00:09:40.454 : en:Chapter 02
00:18:46.917 : en:Chapter 03
00:28:32.836 : en:Chapter 04
00:39:07.094 : en:Chapter 05
00:47:33.475 : en:Chapter 06
00:56:55.954 : en:Chapter 07
01:06:05.503 : en:Chapter 08
01:17:27.809 : en:Chapter 09
01:26:11.958 : en:Chapter 10
01:34:06.474 : en:Chapter 11
01:44:53.412 : en:Chapter 12
01:49:54.087 : en:Chapter 13

Скриншоты

Создавать темы 11-Ноя-2014 15:09

[Профиль]  [ЛС] 

raso

Стаж: 3 года 10 месяцев

Сообщений: 1

yusuf.0088,

Создавать темы 02-Дек-2014 14:31

[Профиль]  [ЛС] 

Frozen_Spider

Стаж: 4 года 4 месяца

Сообщений: 10

Симпатии: 3

Дайте скорости плз

Создавать темы 10-Июн-2016 23:34

[Профиль]  [ЛС] 

dik555

Стаж: 3 года 9 месяцев

Сообщений: 4

дайти скорости

Создавать темы 27-Сен-2016 09:24

[Профиль]  [ЛС] 
Показать сообщения:    
Ответить на тему

Текущее время: 22-Сен 00:22

Часовой пояс: UTC + 5



Вы не можете начинать темы
Вы не можете отвечать на сообщения
Вы не можете редактировать свои сообщения
Вы не можете удалять свои сообщения
Вы не можете голосовать в опросах
Вы не можете прикреплять файлы к сообщениям
Вы не можете скачивать файлы