Динамо: невероятный иллюзионист / Dynamo: Magician Impossible (4 сезон; 1 серий из ?) [2014 г., Документальный, шоу, фокусы, SATRip]

Ответить на тему
 

Imperiya ®

Стаж: 6 лет 4 месяца

Сообщений: 275

Симпатии: 4

Динамо: невероятный иллюзионист«Dynamo: Magician Impossible» --Год выпуска: 2014
Жанр: документальный, шоу, фокусы
Продолжительность: 00:44:28
Перевод: Студийный (многоголосый закадровый) | Discovery Channel--Режиссер: Симон Динсел--В главных ролях: Динамо--Описание: Самый блестящий "волшебник" Британии начинает 4 сезон своего шоу. Вы верите в чудеса? Тогда новая программа Discovery Channel «Динамо: невероятный иллюзионист» предназначена именно для вас: трюки, которые устраивает британский фокусник Динамо, сложно объяснить одной лишь ловкостью рук.--Качество: SATRip
Формат: Mp4
Видео: MPEG4 Video (H264) 648x360 25fps [VideoHandler]
Аудио: AAC 44100Hz stereo 95kbps [SoundHandler]----

MI

Format : MPEG-4
Format profile : Base Media
Codec ID : isom
File size : 222 MiB
Duration : 44mn 28s
Overall bit rate : 697 Kbps
Writing application : Lavf55.33.100
Video
ID : 1
Format : AVC
Format/Info : Advanced Video Codec
Format profile : H[email protected]
Format settings, CABAC : Yes
Format settings, ReFrames : 5 frames
Codec ID : avc1
Codec ID/Info : Advanced Video Coding
Duration : 44mn 28s
Bit rate : 600 Kbps
Width : 648 pixels
Height : 360 pixels
Display aspect ratio : 16:9
Frame rate mode : Constant
Frame rate : 25.000 fps
Color space : YUV
Chroma subsampling : 4:2:0
Bit depth : 8 bits
Scan type : Progressive
Bits/(Pixel*Frame) : 0.103
Stream size : 189 MiB (85%)
Writing library : x264 core 123 r2189 35cf912
Encoding settings : cabac=1 / ref=5 / deblock=1:0:0 / analyse=0x3:0x113 / me=umh / subme=8 / psy=1 / psy_rd=1.00:0.00 / mixed_ref=1 / me_range=16 / chroma_me=1 / trellis=1 / 8x8dct=1 / cqm=0 / deadzone=21,11 / fast_pskip=1 / chroma_qp_offset=-2 / threads=2 / sliced_threads=0 / nr=0 / decimate=1 / interlaced=0 / bluray_compat=0 / constrained_intra=0 / bframes=3 / b_pyramid=2 / b_adapt=2 / b_bias=0 / direct=3 / weightb=1 / open_gop=0 / weightp=2 / keyint=25 / keyint_min=2 / scenecut=40 / intra_refresh=0 / rc_lookahead=25 / rc=abr / mbtree=1 / bitrate=600 / ratetol=1.0 / qcomp=0.60 / qpmin=0 / qpmax=69 / qpstep=4 / ip_ratio=1.40 / aq=1:1.00
Audio
ID : 2
Format : AAC
Format/Info : Advanced Audio Codec
Format profile : LC
Codec ID : 40
Duration : 44mn 27s
Bit rate mode : Constant
Bit rate : 96.0 Kbps
Channel(s) : 2 channels
Channel positions : Front: L R
Sampling rate : 44.1 KHz
Compression mode : Lossy
Stream size : 30.5 MiB (14%)

Скриншоты



Последний раз редактировалось: Imperiya (2014-11-11 23:20), всего редактировалось 2 раз(а)

Создавать темы 11-Ноя-2014 22:36

[Профиль]  [ЛС] 

DXgame

Стаж: 4 года 10 месяцев

Сообщений: 128

Симпатии: 144

Imperiya, Добавьте скриншоты, описание и думаю доп. инфу. (MI) нужно под спойлер...

Создавать темы 11-Ноя-2014 22:47

[Профиль]  [ЛС] 

Imperiya ®

Стаж: 6 лет 4 месяца

Сообщений: 275

Симпатии: 4

аха шас. просто я давно не оформил релизы.

Создавать темы 11-Ноя-2014 22:49

[Профиль]  [ЛС] 

Fahriddinxon

Стаж: 5 лет 7 месяцев

Сообщений: 162

Симпатии: 23

Почему неактивный

Создавать темы 12-Ноя-2014 08:21

[Профиль]  [ЛС] 

Imperiya ®

Стаж: 6 лет 4 месяца

Сообщений: 275

Симпатии: 4

модери помогите как добавлять 2 серию? я уже скачал но не смогу изменит тему

Создавать темы 23-Ноя-2014 19:59

[Профиль]  [ЛС] 

Fahriddinxon

Стаж: 5 лет 7 месяцев

Сообщений: 162

Симпатии: 23

Прочитай

Создавать темы 30-Ноя-2014 01:58

[Профиль]  [ЛС] 
Показать сообщения:    
Ответить на тему

Текущее время: 24-Авг 11:45

Часовой пояс: UTC + 5



Вы не можете начинать темы
Вы не можете отвечать на сообщения
Вы не можете редактировать свои сообщения
Вы не можете удалять свои сообщения
Вы не можете голосовать в опросах
Вы не можете прикреплять файлы к сообщениям
Вы не можете скачивать файлы