Deep Purple - Live In Denmark (1972) [2007 г., Hard Rock, DVDRip]

Ответить на тему
 

Massageth ®

Стаж: 6 лет 10 месяцев

Сообщений: 116

Симпатии: 15

Deep Purple - Live In Denmark (1972) Год выпуска: 2007
Страна: Великобритания
Жанр: Hard Rock
Продолжительность: 01:34:02

Описание: Kонцерт легендарной группы Deep Purple, записанный в Копенгагене 1 марта 1972 года. "Live in Denmark '72" продолжает серию "официальных бутлегов", т.к. долгое время эта дорожка была издана на пиратском диске с тем же названием. Эта лента была снята датским телевидением в 1972 году, но дневной свет она увидела намного позже, в 1988-м. Выходила под разными названиями, чаще всего как "Scandinavian nights". В принципе, если Вам встретится масштабных размеров видеофайл с меткой DP 1972, то можете быть уверены, что имеете дело именно с этой записью. Другое дело, что существует издание с бонусами из материалов 1973 года. Live in Denmark 1972 — концертный альбом британской рок-группы Deep Purple, записанный в Дании 1 марта 1972 года и выпущенный спустя 35 лет в 2007 году. Live in Denmark 1972 один из пяти альбомов группы, записанных в ходе концерта. Сам видеоматериал записан в KB Hallen (Копенгаген) в 1972-м году. Этот концерт впервые был выпущен в 1987 году в Японии под названием Machine Head Live 1972 и в Европе через 3 года под названием Scandinavian Nights (Live in Denmark 1972). Альбом также включает 3 песни, записанные в Нью-Йорке.
Качество: DVDRip
Контейнер: AVI
Видео кодек: Другой MPEG4
Аудио кодек: MP3
Видео: AVI, MPEG-4 Visual, Advanced [email protected], 1295 Кбит/сек, 704x528, 4:3, 25,000.
Аудио: MP3, MPEG Audio Version 1 Layer 3 Joint stereo, Bit rate: 320 Kbps, 2 channels, 48.0 KHz.

Треклист

01. Highway Star
02. Strange Kind Of A Woman
03. Child In Time
04. The Mule
05. Lazy
06. Space Trucking
07. Fireball
08. Lucille
09. Black Night

Состав группы

Jon Lord (keyboards),
Ritchie Blackmore (guitar),
Ian Paice (drums),
Roger Glover (bass),
Ian Gillan (vocals).

Media Info

Общее
Полное имя : Deep Purple - Live In Denmark (1972).avi
Формат : AVI
Формат/Информация : Audio Video Interleave
Профиль формата : OpenDML
Размер файла : 1,07 Гбайт
Продолжительность : 1 ч. 34 м.
Общий поток : 1632 Кбит/сек
Видео
Идентификатор : 0
Формат : MPEG-4 Visual
Профиль формата : Advanced [email protected]
Параметр BVOP формата : 1
Параметр QPel формата : Да
Параметр GMC формата : 3 точки перехода
Параметр матрицы формата : Default (H.263)
Режим смешивания : Сжатый битовый поток
Идентификатор кодека : MP4V
Идентификатор кодека/Информация : Apple QuickTime MPEG-4 native
Продолжительность : 1 ч. 34 м.
Битрейт : 1295 Кбит/сек
Ширина : 704 пикселя
Высота : 528 пикселей
Соотношение сторон : 4:3
Частота кадров : 25,000 кадров/сек
Цветовое пространство : YUV
Субдискретизация насыщенности : 4:2:0
Битовая глубина : 8 бит
Тип развёртки : Прогрессивная
Метод сжатия : С потерями
Бит/(Пиксели*Кадры) : 0.139
Размер потока : 871 Мбайт (79%)
Библиотека кодирования : DivX 1393
Аудио
Идентификатор : 1
Формат : MPEG Audio
Версия формата : Version 1
Профиль формата : Layer 3
Режим : Joint stereo
Идентификатор кодека : 55
Идентификатор кодека/Подсказка : MP3
Продолжительность : 1 ч. 34 м.
Вид битрейта : Постоянный
Битрейт : 320 Кбит/сек
Каналы : 2 канала
Частота : 48,0 КГц
Метод сжатия : С потерями
Размер потока : 215 Мбайт (20%)
Выравнивание : Соединение по промежуткам
Продолжительность промежутка : 24 мс. (0,60 видеокадр)
Время предзагрузки промежутка : 1008 мс.

Скриншоты






Создавать темы 12-Ноя-2014 00:12

[Профиль]  [ЛС] 

Sa-shock159

Стаж: 4 года 3 месяца

Сообщений: 97

Симпатии: 27

СПАСИБО ОГРОМНОЕ!!! Моя любимоя группа.

Создавать темы 12-Ноя-2014 06:43

[Профиль]  [ЛС] 

senya

Стаж: 7 лет

Сообщений: 14

Спасибо. Побольше бы классических рок-концертов.

Создавать темы 12-Ноя-2014 08:00

[Профиль]  [ЛС] 

faritd

Стаж: 4 года 11 месяцев

Сообщений: 8

Спасибо

Создавать темы 12-Ноя-2014 14:19

[Профиль]  [ЛС] 
Показать сообщения:    
Ответить на тему

Текущее время: 20-Сен 07:08

Часовой пояс: UTC + 5



Вы не можете начинать темы
Вы не можете отвечать на сообщения
Вы не можете редактировать свои сообщения
Вы не можете удалять свои сообщения
Вы не можете голосовать в опросах
Вы не можете прикреплять файлы к сообщениям
Вы не можете скачивать файлы