Deep Purple - In Concert (1973) [2005 г., Hard Rock, DVDRip]

Ответить на тему
 

Massageth ®

Стаж: 7 лет 1 месяц

Сообщений: 116

Симпатии: 15

Deep Purple - In Concert (1973) Год выпуска: 2005
Страна: Великобритания
Жанр: Hard Rock
Продолжительность: 00:22:18
Описание: Live In Concert 72/73 — концертный DVD группы Deep Purple, выпущенный в 2005 году. Этот концерт данный группой в Нью-Йорке, в мае 1973 г., примечателен тем, что здесь золотым составом исполняется знаменитая песня "Smoke On The Water", незадолго до ухода из группы Яна Гиллана и Роджера Гловера, что само по себе является раритетом. Этот DVD является дополнением к концерту "Live In Denmark" - 1972.
Качество: DVDRip
Формат: AVI
Видео кодек: Другой MPEG4
Аудио кодек: MP3
Видео: AVI, MPEG-4 Visual, Advanced [email protected], 1358 Кбит/сек, 720x540, 4:3, 25,000.
Аудио: MP3, MPEG Audio Version 1 Layer 3 Joint stereo, Bit rate: 320 Kbps, 2 channels, 48.0 KHz.

Треклист

«Strange Kind of Woman» — 6:18
«Smoke on the Water» — 5:20
«Space Truckin'» — 10:43

Состав группы

Ричи Блэкмор — гитара
Иэн Гиллан — вокал, барабаны конга
Роджер Гловер — бас-гитара
Джон Лорд — орган, клавишные
Иэн Пэйс — ударные

Media Info

Общее
Полное имя : Deep Purple - In Concert (1973).avi
Формат : AVI
Формат/Информация : Audio Video Interleave
Размер файла : 271 Мбайт
Продолжительность : 22 м.
Общий поток : 1696 Кбит/сек
Видео
Идентификатор : 0
Формат : MPEG-4 Visual
Профиль формата : Advanced [email protected]
Параметр BVOP формата : 1
Параметр QPel формата : Да
Параметр GMC формата : 3 точки перехода
Параметр матрицы формата : Default (H.263)
Режим смешивания : Сжатый битовый поток
Идентификатор кодека : MP4V
Идентификатор кодека/Информация : Apple QuickTime MPEG-4 native
Продолжительность : 22 м.
Битрейт : 1358 Кбит/сек
Ширина : 720 пикселей
Высота : 540 пикселей
Соотношение сторон : 4:3
Частота кадров : 25,000 кадров/сек
Цветовое пространство : YUV
Субдискретизация насыщенности : 4:2:0
Битовая глубина : 8 бит
Тип развёртки : Прогрессивная
Метод сжатия : С потерями
Бит/(Пиксели*Кадры) : 0.140
Размер потока : 217 Мбайт (80%)
Библиотека кодирования : DivX 1393
Аудио
Идентификатор : 1
Формат : MPEG Audio
Версия формата : Version 1
Профиль формата : Layer 3
Режим : Joint stereo
Идентификатор кодека : 55
Идентификатор кодека/Подсказка : MP3
Продолжительность : 22 м.
Вид битрейта : Постоянный
Битрейт : 320 Кбит/сек
Каналы : 2 канала
Частота : 48,0 КГц
Метод сжатия : С потерями
Размер потока : 51,1 Мбайт (19%)
Выравнивание : Соединение по промежуткам
Продолжительность промежутка : 24 мс. (0,60 видеокадр)
Время предзагрузки промежутка : 1008 мс.

Скриншоты

Создавать темы 12-Ноя-2014 12:26

[Профиль]  [ЛС] 

Sa-shock159

Стаж: 4 года 6 месяцев

Сообщений: 97

Симпатии: 27

Отлично.СПАСИБО.

Создавать темы 12-Ноя-2014 12:50

[Профиль]  [ЛС] 

Massageth ®

Стаж: 7 лет 1 месяц

Сообщений: 116

Симпатии: 15

Ссылка на релиз Deep Purple - Live In Denmark (1972): https://tas-ix.net/viewtopic.php?t=100578

Создавать темы 12-Ноя-2014 13:45

[Профиль]  [ЛС] 

kamol009

Стаж: 4 года 7 месяцев

Сообщений: 7

Спасибо! Было бы еще шикарно Made for Japan увидеть.
Дейв Ковердейл непревзойденно отжигал там Бёрн и Смоук он зе вотер!!!
А Блекмор превзошел себя на Вайлд дог.

Создавать темы 12-Ноя-2014 16:20

[Профиль]  [ЛС] 

Massageth ®

Стаж: 7 лет 1 месяц

Сообщений: 116

Симпатии: 15

893787Спасибо! Было бы еще шикарно Made for Japan увидеть.
Дейв Ковердейл непревзойденно отжигал там Бёрн и Смоук он зе вотер!!!
А Блекмор превзошел себя на Вайлд дог.
Вы путаете что-то.
1. Made for Japan - в природе видеоматериалов нет. Есть подборки из различных годов названные этим названием. В то время солистом был Ян Гиллан, а Ковердэйл продавал пластинки в магазине.
2. Дейв Ковердейл действительно отжигал на концерте California Jam - 1974 года, этот релиз я планирую выложить в скором будущем.

Создавать темы 12-Ноя-2014 16:54

[Профиль]  [ЛС] 

faritd

Стаж: 5 лет 1 месяц

Сообщений: 8

Лучшая группа всех времен. Спасибо

Создавать темы 12-Ноя-2014 21:17

[Профиль]  [ЛС] 
Показать сообщения:    
Ответить на тему

Текущее время: 11-Дек 09:08

Часовой пояс: UTC + 5



Вы не можете начинать темы
Вы не можете отвечать на сообщения
Вы не можете редактировать свои сообщения
Вы не можете удалять свои сообщения
Вы не можете голосовать в опросах
Вы не можете прикреплять файлы к сообщениям
Вы не можете скачивать файлы