Deep Purple - Doing Their Thing (1970) [1990 г., Hard Rock, DVDRip]

Ответить на тему
 

Massageth ®

Стаж: 7 лет 1 месяц

Сообщений: 116

Симпатии: 15

Deep Purple - Doing Their Thing (1970) Год выпуска: 1990
Страна: Великобритания
Жанр: Hard Rock
Продолжительность: 00:23:38
Описание: Doing Their Thing — концертный DVD британской рок-группы Deep Purple. На этом видео записан 25-минутный концерт Deep Purple в телевизионной студии, снятый компанией «Granada Television» 21 августа 1970 года. Выпущен в 1990 году. Живое выступление легендарных хард-рокеров в золотом составе. Что там творил Блэкмор не поддается описанию! Вокал Гиллана – это что-то, именно в этом месте Гиллан вытягивал свою знамеитую Си бемоль в "Child In Time". Это самое лучшее исполнение этой песни!
Качество: DVDRip
Формат: AVI
Видео кодек: Другой MPEG4
Аудио кодек: MP3
Видео: AVI, MPEG-4 Visual, Advanced [email protected], 1373 Кбит/сек, 720x540, 4:3, 25,000.
Аудио: MP3, MPEG Audio Version 1 Layer 3 Joint stereo, Bit rate: 320 Kbps, 2 channels, 48.0 KHz.

Треклист

1. Speed King - (Paice/Lord/Blackmore/Gillan/Glover)
2. Child In Time - (Paice/Lord/Blackmore/Gillan/Glover)
3. Wring That Neck - (Lord/Simper/Blackmore/Paice)
4. Mandrake Root - (Lord/Evans/Blackmore)

Состав группы

Ричи Блэкмор — гитары
Иэн Гиллан — вокал
Роджер Гловер — бас
Джон Лорд — клавишные
Ян Пейс — ударные

Media Info

Общее
Полное имя : Deep Purple - Doing Their Thing (1970).avi
Формат : AVI
Формат/Информация : Audio Video Interleave
Размер файла : 289 Мбайт
Продолжительность : 23 м.
Общий поток : 1710 Кбит/сек
Видео
Идентификатор : 0
Формат : MPEG-4 Visual
Профиль формата : Advanced [email protected]
Параметр BVOP формата : 1
Параметр QPel формата : Да
Параметр GMC формата : 3 точки перехода
Параметр матрицы формата : Default (H.263)
Режим смешивания : Сжатый битовый поток
Идентификатор кодека : MP4V
Идентификатор кодека/Информация : Apple QuickTime MPEG-4 native
Продолжительность : 23 м.
Битрейт : 1373 Кбит/сек
Ширина : 720 пикселей
Высота : 540 пикселей
Соотношение сторон : 4:3
Частота кадров : 25,000 кадров/сек
Цветовое пространство : YUV
Субдискретизация насыщенности : 4:2:0
Битовая глубина : 8 бит
Тип развёртки : Прогрессивная
Метод сжатия : С потерями
Бит/(Пиксели*Кадры) : 0.141
Размер потока : 232 Мбайт (80%)
Библиотека кодирования : DivX 1393
Аудио
Идентификатор : 1
Формат : MPEG Audio
Версия формата : Version 1
Профиль формата : Layer 3
Режим : Joint stereo
Идентификатор кодека : 55
Идентификатор кодека/Подсказка : MP3
Продолжительность : 23 м.
Вид битрейта : Постоянный
Битрейт : 320 Кбит/сек
Каналы : 2 канала
Частота : 48,0 КГц
Метод сжатия : С потерями
Размер потока : 54,1 Мбайт (19%)
Выравнивание : Соединение по промежуткам
Продолжительность промежутка : 24 мс. (0,60 видеокадр)
Время предзагрузки промежутка : 1008 мс.

Скриншоты



Последний раз редактировалось: Massageth (2014-11-12 23:30), всего редактировалось 1 раз

Создавать темы 12-Ноя-2014 20:40

[Профиль]  [ЛС] 
Показать сообщения:    
Ответить на тему

Текущее время: 17-Дек 09:10

Часовой пояс: UTC + 5



Вы не можете начинать темы
Вы не можете отвечать на сообщения
Вы не можете редактировать свои сообщения
Вы не можете удалять свои сообщения
Вы не можете голосовать в опросах
Вы не можете прикреплять файлы к сообщениям
Вы не можете скачивать файлы