Deep Purple - POP Deux (1970) [2010 г., Hard Rock, DVDRip]

Ответить на тему
 

Massageth ®

Стаж: 6 лет 10 месяцев

Сообщений: 116

Симпатии: 15

Deep Purple - POP Deux (1970) Год выпуска: 2010
Страна: Великобритания
Жанр: Hard Rock
Продолжительность: 00:25:30
Описание: Еще одно раннее выступление группы Deep Purple 14 ноября 1970 года в г. Париже (Франция). Раритетный концерт Deep Purple , вокала практически нет, в основном импровизация, но... как играют!
Качество: DVDRip
Формат: AVI
Видео кодек: Другой MPEG4
Аудио кодек: MP3
Видео: AVI, MPEG-4 Visual, Advanced [email protected], 1358 Кбит/сек, 720x540, 4:3, 25,000.
Аудио: MP3, MPEG Audio Version 1 Layer 3 Joint stereo, Bit rate: 320 Kbps, 2 channels, 48.0 KHz.

Треклист

1. Wring That Neck
2. Mandrake Root

Состав группы

Ritchie Blackmore
Ian Gillan
Roger Glover
John Lord
Yan Paice

Media Info

Общее
Полное имя : Deep Purple - POP Deux (1970).avi
Формат : AVI
Формат/Информация : Audio Video Interleave
Размер файла : 301 Мбайт
Продолжительность : 25 м.
Общий поток : 1651 Кбит/сек
Видео
Идентификатор : 0
Формат : MPEG-4 Visual
Профиль формата : Advanced [email protected]
Параметр BVOP формата : 1
Параметр QPel формата : Да
Параметр GMC формата : 3 точки перехода
Параметр матрицы формата : Default (H.263)
Режим смешивания : Сжатый битовый поток
Идентификатор кодека : MP4V
Идентификатор кодека/Информация : Apple QuickTime MPEG-4 native
Продолжительность : 25 м.
Битрейт : 1314 Кбит/сек
Ширина : 720 пикселей
Высота : 540 пикселей
Соотношение сторон : 4:3
Частота кадров : 25,000 кадров/сек
Цветовое пространство : YUV
Субдискретизация насыщенности : 4:2:0
Битовая глубина : 8 бит
Тип развёртки : Прогрессивная
Метод сжатия : С потерями
Бит/(Пиксели*Кадры) : 0.135
Размер потока : 240 Мбайт (80%)
Библиотека кодирования : DivX 1393
Аудио
Идентификатор : 1
Формат : MPEG Audio
Версия формата : Version 1
Профиль формата : Layer 3
Режим : Joint stereo
Идентификатор кодека : 55
Идентификатор кодека/Подсказка : MP3
Продолжительность : 25 м.
Вид битрейта : Постоянный
Битрейт : 320 Кбит/сек
Каналы : 2 канала
Частота : 48,0 КГц
Метод сжатия : С потерями
Размер потока : 58,4 Мбайт (19%)
Выравнивание : Соединение по промежуткам
Продолжительность промежутка : 24 мс. (0,60 видеокадр)
Время предзагрузки промежутка : 1008 мс.

Скриншоты

Создавать темы 12-Ноя-2014 22:39

[Профиль]  [ЛС] 
Показать сообщения:    
Ответить на тему

Текущее время: 20-Сен 09:00

Часовой пояс: UTC + 5



Вы не можете начинать темы
Вы не можете отвечать на сообщения
Вы не можете редактировать свои сообщения
Вы не можете удалять свои сообщения
Вы не можете голосовать в опросах
Вы не можете прикреплять файлы к сообщениям
Вы не можете скачивать файлы