Планета обезьян: Революция / Dawn of the Planet of the Apes (Мэтт Ривз) [2014 г., фантастика, боевик, драма, HDRip] Лицензия

Страницы :  1, 2  След.

Ответить на тему
 

Zab ®

Стаж: 6 лет 7 месяцев

Сообщений: 476

Симпатии: 424

«Молитесь за мир, готовьтесь к войне» -Год выпуска: 2014
Страна: США
Жанр: фантастика, боевик, драма
Год выпуска: 2014
Продолжительность: 02:10:42
Перевод: Профессиональный (полное дублирование) [Лицензия]-Режиссер: Мэтт Ривз/ Matt Reeves
В ролях: Энди Серкис, Джейсон Кларк, Гари Олдман, Кери Расселл, Тоби Кеббелл, Коди Смит-МакФи, Кирк Асеведо, Ник Тёрстон, Терри Нотари, Карин Коновал, Джуди Грир, Джон Эйз, Энрике Мурсиано-Описание: Численность генетически модифицированных обезьян, возглавляемых Цезарем, продолжает увеличиваться, но обезьянам угрожают люди, которым удалось выжить во время ужасной эпидемии десятилетней давности. Поначалу между соперниками устанавливается хрупкий мир, но он оказывается недолговечным. Обезьяны и люди находятся на грани войны, в ходе которой станет понятно, кто из них в будущем станет безраздельно править планетой.- -Качество: HDRip
Формат: AVI
Видео кодек: XviD
Аудио кодек: AC3
Видео: XviD, 720x384 23.976fps 1793kbps
Аудио: Dolby AC3 48000Hz 6ch 448kbps-

MI

General
Complete name                            : D:\[Movies]\Dawn.Of.The.Planet.of.The.Apes.2014..HDRip.avi
Format                                   : AVI
Format/Info                              : Audio Video Interleave
Format profile                           : OpenDML
File size                                : 2.05 GiB
Duration                                 : 2h 10mn
Overall bit rate                         : 2 254 Kbps
Writing application                      : VirtualDubMod 1.5.10.3 | www.virtualdub-fr.org || (build 2550/release)
Writing library                          : VirtualDubMod build 2550/release
Video
ID                                       : 0
Format                                   : MPEG-4 Visual
Format profile                           : Advanced [email protected]
Format settings, BVOP                    : 2
Format settings, QPel                    : No
Format settings, GMC                     : No warppoints
Format settings, Matrix                  : Default (MPEG)
Codec ID                                 : XVID
Codec ID/Hint                            : XviD
Duration                                 : 2h 10mn
Bit rate                                 : 1 794 Kbps
Width                                    : 720 pixels
Height                                   : 384 pixels
Display aspect ratio                     : 1.85:1
Frame rate                               : 23.976 fps
Color space                              : YUV
Chroma subsampling                       : 4:2:0
Bit depth                                : 8 bits
Scan type                                : Progressive
Compression mode                         : Lossy
Bits/(Pixel*Frame)                       : 0.271
Stream size                              : 1.63 GiB (80%)
Writing library                          : XviD 1.2.1 (UTC 2008-12-04)
Audio
ID                                       : 1
Format                                   : AC-3
Format/Info                              : Audio Coding 3
Mode extension                           : CM (complete main)
Format settings, Endianness              : Big
Codec ID                                 : 2000
Duration                                 : 2h 10mn
Bit rate mode                            : Constant
Bit rate                                 : 448 Kbps
Channel(s)                               : 6 channels
Channel positions                        : Front: L C R, Side: L R, LFE
Sampling rate                            : 48.0 KHz
Bit depth                                : 16 bits
Compression mode                         : Lossy
Stream size                              : 418 MiB (20%)
Alignment                                : Split accross interleaves
Interleave, duration                     : 42 ms (1.00 video frame)
Interleave, preload duration             : 500 ms

Скриншоты

Создавать темы 13-Ноя-2014 03:39

[Профиль]  [ЛС] 

Mpak

Стаж: 5 лет 5 месяцев

Сообщений: 663

Симпатии: 340

Все таки скучный фильм, с первоначальным источником не сравнится :(. И все равно возникает вопрос, как обезьяны смогли победить людей, с учетом что после вируса многие выжили, получили иммунитет. И у них осталась куча оружия. Ладно Фриско завалили, но ведь есть куча других городов, и помимо Америки - другие континенты :) Обезьянам надо развиться до уровня, что бы освоить кораблестроение - в это время люди уже восстановили бы все утерянное :)
В общем, бред :)

Создавать темы 13-Ноя-2014 09:13

[Профиль]  [ЛС] 

Evgeny99

Стаж: 6 лет 11 месяцев

Сообщений: 82

Симпатии: 3

Mpak
Как животные умней людей ))

Создавать темы 13-Ноя-2014 09:23

[Профиль]  [ЛС] 

Mpak

Стаж: 5 лет 5 месяцев

Сообщений: 663

Симпатии: 340

Ну про это обьяснили в предыдущем фыльме :)

Создавать темы 13-Ноя-2014 10:20

[Профиль]  [ЛС] 

ogolli

Стаж: 6 лет 8 месяцев

Сообщений: 4

отличный фильм для любителей фантастики с отличной графикой

Создавать темы 13-Ноя-2014 12:41

[Профиль]  [ЛС] 

Zab ®

Стаж: 6 лет 7 месяцев

Сообщений: 476

Симпатии: 424

Mpak, По мне хороший фильм, конечно местами скучноват, но поражает лишь одно: почему зная о том что обезьяны начали говорить, люди оставили оружие без просмотра... Хоть и много неточностей, но это минус для любителей всего достоверного и логического. Если вас не заботит и то что оружие стреляет бесконечно, а люди ведут себя по - детски, хотя они прошли жесткую школу выживания в постапокалипсисе, то от просмотра фильма останетесь довольны!!

Создавать темы 13-Ноя-2014 13:34

[Профиль]  [ЛС] 

blackshark

Стаж: 6 лет 11 месяцев

Сообщений: 260

Симпатии: 23

Субтитры есть на речь обезбян?

Создавать темы 15-Ноя-2014 21:08

[Профиль]  [ЛС] 

Zab ®

Стаж: 6 лет 7 месяцев

Сообщений: 476

Симпатии: 424

blackshark, Есть, на русском (лицензия же)...

Создавать темы 15-Ноя-2014 23:11

[Профиль]  [ЛС] 

axeman

Стаж: 5 лет 1 месяц

Сообщений: 380

Симпатии: 50

чет последние дни медленно качает

Создавать темы 16-Ноя-2014 12:38

[Профиль]  [ЛС] 

Nemo

Стаж: 6 лет 11 месяцев

Сообщений: 74

Симпатии: 4

Mpak, а по-моему, сюжет в целом более правдоподобен. В лекарство как легче верится, чем в обезьян, которые сами стали умными за 20-30 лет и захватили мир с обезьяной-вожаком практически из будущего ))
А так, конечно, фильм так себе.

Создавать темы 16-Ноя-2014 17:17

[Профиль]  [ЛС] 

Рашыд

Стаж: 7 лет 5 месяцев

Сообщений: 6

Симпатии: 1

после ваших обсуждений возникает такое ощущение что в начале фильма была надпись "фильм основан на реальных событиях"...

Создавать темы 17-Ноя-2014 20:49

[Профиль]  [ЛС] 

4niko

Стаж: 7 лет 1 месяц

Сообщений: 78

Симпатии: 11

ребят вы не поверите но фильм <~~>
куда дели 170 000 000 долларов бюджета непонятно.
Похоже научились у наших соседей Роспилу.
С женой сидели и на 10 минут предугадывали что будет дальше.
Самый худший фантастический фильм за последние лет 10.
Много идиотизмов на которых построен фильм, к примеру нах. брать мексиканца стрелявшего в обезьяну на переговоры по поводу ГЭС, естественно это приводит к большим противоречиям у людей.
И вообще для сказали что выживает каждый пятисотый, значит на планете осталось 14 миллионов человек напичканных оружием.
Стадо обезьян можно стереть с лица земли как муравейник.
Короче бред бред бред бред.

Создавать темы 21-Ноя-2014 20:08

[Профиль]  [ЛС] 

samud

Стаж: 5 лет 7 месяцев

Сообщений: 108

Симпатии: 24

ну и времена настали обезьяны умнее людей, это пропаганда США, своё мракобесие по всему миру распространяют, правильно в конгресе у них обезьяны сидят типа Макейна они-то всю политику США строят те самые обезьяны, этот фильм политический не стоит смотреть политику уже нынешней сша... ag

Создавать темы 29-Ноя-2014 13:18

[Профиль]  [ЛС] 

focusn1k

Стаж: 5 лет 1 месяц

Сообщений: 30

Моя скорость интернета: 214.69 Мб/сек

Создавать темы 29-Ноя-2014 14:00

[Профиль]  [ЛС] 

ulmas13

Стаж: 4 года 10 месяцев

Сообщений: 69

Симпатии: 14

Скучно. 1 серия фильма куда более лучшая.

Создавать темы 07-Дек-2014 16:12

[Профиль]  [ЛС] 
Показать сообщения:    
Ответить на тему

Текущее время: 18-Дек 19:38

Часовой пояс: UTC + 5



Вы не можете начинать темы
Вы не можете отвечать на сообщения
Вы не можете редактировать свои сообщения
Вы не можете удалять свои сообщения
Вы не можете голосовать в опросах
Вы не можете прикреплять файлы к сообщениям
Вы не можете скачивать файлы