Deep Purple - California Jam (1974) - (Музыкальный Легион с Александром Лоевским - Документальный фильм)[2009 г., Hard Rock, SATRip]

Ответить на тему
 

Massageth ®

Стаж: 6 лет 9 месяцев

Сообщений: 116

Симпатии: 15

Deep Purple - California Jam (1974) (Музыкальный Легион с Александром Лоевским - Документальный фильм) Год выпуска: 2009
Страна: Великобритания
Жанр: Hard Rock
Продолжительность: 00:25:28
Описание: Программа Музыкальный легион с ведущим Александром Лоевским.
Программа для тех любителей музыки у кого не только есть уши но и глаза. Программа Музыкальный легион представляет группу Deep Purple на фестивале California Jam 1974.
Качество: SATRip
Формат: AVI
Видео кодек: Другой MPEG4
Аудио кодек: MP3
Видео: AVI, MPEG-4 Visual, Advanced [email protected], 1377 Кбит/сек, 720x540, 4:3, 25,000.
Аудио: MP3, MPEG Audio Version 1 Layer 3 Joint stereo, Bit rate: 320 Kbps, 2 channels, 48.0 KHz.

Треклист

1. Burn
2. Might Just Take Your Life
3. Lay Down, Stay Down
4. Mistreated
5. Smoke On The Water
6. You Fool No One
7. Space Truckin

Состав группы

Ричи Блэкмор: гитара, Иэн Пэйс: ударные, Дэвид Кавердэйл: вокал, Глен Хьюз: бас-гитара, Джон Лорд: орган, клавишные.

Media Info

Общее
Полное имя : Deep Purple - California Jam - (Музыкальный Легион с Александром Лоевским - Документальный фильм).avi
Формат : AVI
Формат/Информация : Audio Video Interleave
Размер файла : 312 Мбайт
Продолжительность : 25 м.
Общий поток : 1715 Кбит/сек
Видео
Идентификатор : 0
Формат : MPEG-4 Visual
Профиль формата : Advanced [email protected]
Параметр BVOP формата : 1
Параметр QPel формата : Да
Параметр GMC формата : 3 точки перехода
Параметр матрицы формата : Default (H.263)
Режим смешивания : Сжатый битовый поток
Идентификатор кодека : MP4V
Идентификатор кодека/Информация : Apple QuickTime MPEG-4 native
Продолжительность : 25 м.
Битрейт : 1377 Кбит/сек
Ширина : 720 пикселей
Высота : 540 пикселей
Соотношение сторон : 4:3
Частота кадров : 25,000 кадров/сек
Цветовое пространство : YUV
Субдискретизация насыщенности : 4:2:0
Битовая глубина : 8 бит
Тип развёртки : Прогрессивная
Метод сжатия : С потерями
Бит/(Пиксели*Кадры) : 0.142
Размер потока : 251 Мбайт (80%)
Библиотека кодирования : DivX 1393
Аудио
Идентификатор : 1
Формат : MPEG Audio
Версия формата : Version 1
Профиль формата : Layer 3
Режим : Joint stereo
Идентификатор кодека : 55
Идентификатор кодека/Подсказка : MP3
Продолжительность : 25 м.
Вид битрейта : Постоянный
Битрейт : 320 Кбит/сек
Каналы : 2 канала
Частота : 48,0 КГц
Метод сжатия : С потерями
Размер потока : 58,3 Мбайт (19%)
Выравнивание : Соединение по промежуткам
Продолжительность промежутка : 24 мс. (0,60 видеокадр)
Время предзагрузки промежутка : 1008 мс.

Скриншоты

Создавать темы 13-Ноя-2014 14:52

[Профиль]  [ЛС] 

faritd

Стаж: 4 года 10 месяцев

Сообщений: 8

Еще раз большое спасибо

Создавать темы 13-Ноя-2014 15:52

[Профиль]  [ЛС] 
Показать сообщения:    
Ответить на тему

Текущее время: 21-Авг 20:52

Часовой пояс: UTC + 5



Вы не можете начинать темы
Вы не можете отвечать на сообщения
Вы не можете редактировать свои сообщения
Вы не можете удалять свои сообщения
Вы не можете голосовать в опросах
Вы не можете прикреплять файлы к сообщениям
Вы не можете скачивать файлы