«Динамо: невероятный иллюзионист» / 4 сезон 1-4 из 4 / 2014 / Dynamo: Magician Impossible / Dynamo: Magician Impossible [2014, Шоу,фокусы, HDTVRip]

Ответить на тему
 

Fahriddinxon ®

Стаж: 5 лет 7 месяцев

Сообщений: 162

Симпатии: 23

«Динамо: невероятный иллюзионист» / 4 сезон 1-4 из 4 / 2014 / Dynamo: Magician Impossible Год выпуска: 2014
Страна: Великобритания
Жанр: Шоу,фокусы
Продолжительность: ~ 40 минут
Перевод: Студийный (одноголосый закадровый)
Русские субтитры: нет
Оригинальная аудиодорожка: английский
Телеканал: Watch
Описание: Знаменитый иллюзионист под псевдонимом Динамо представляет четвертый и последний сезон своего шоу. В этих сериях он побывает в Северной Америке и Индии ,Франции и городах Великобритании удивляя людей своими удивительными трюками .Его волшебная сила – это тайна, которой он окутывает свои масштабные номера. Он появляется из ниоткуда и так же неожиданно исчезает. Завоевав однажды любовь зрителей, он не перестает удивлять новыми трюками, разгадку которых не берутся найти даже отъявленные скептики. Король магии возвращается, чтобы околдовать зрителей всего мира своими фокусами .
Качество: HDTVRip
Формат: TS/M2TS
Видео: AVC, 1280х720, 16:9, ~3000 Kbps, 25.000 fps
Аудио 1: PCM, 1 536 Kbps, 48.0 KHz, 2 channels
Аудио 2: AC-3, 44.1 KHz, 192 Kbps, 2 channels

1 серия

MediaInfo

General
ID : 1 (0x1)
Complete name : E:\TORRENT\Dynamo.Magician.Impossible.S04\Dynamo.Magician.Impossible.S04E01.720p.HDTV.x264-FaiLED_new.ts
Format : MPEG-TS
File size : 1.55 GiB
Duration : 44mn 28s
Overall bit rate mode : Variable
Overall bit rate : 4 994 Kbps
Maximum Overall bit rate : 35.5 Mbps
Video
ID : 4113 (0x1011)
Menu ID : 1 (0x1)
Format : AVC
Format/Info : Advanced Video Codec
Format profile : [email protected]
Format settings, CABAC : Yes
Format settings, ReFrames : 5 frames
Codec ID : 27
Duration : 44mn 28s
Bit rate mode : Variable
Bit rate : 3 001 Kbps
Maximum bit rate : 40.0 Mbps
Width : 1 280 pixels
Height : 720 pixels
Display aspect ratio : 16:9
Frame rate : 25.000 fps
Color space : YUV
Chroma subsampling : 4:2:0
Bit depth : 8 bits
Scan type : Progressive
Bits/(Pixel*Frame) : 0.130
Stream size : 954 MiB (60%)
Language : English
Color primaries : BT.709
Transfer characteristics : BT.709
Matrix coefficients : BT.709
Audio #1
ID : 4352 (0x1100)
Menu ID : 1 (0x1)
Format : PCM
Format settings, Endianness : Big
Format settings, Sign : Signed
Muxing mode : Blu-ray
Codec ID : 128
Duration : 44mn 27s
Bit rate mode : Constant
Bit rate : 1 536 Kbps
Channel count : 2 channels
Channel positions : Front: L R
Sampling rate : 48.0 KHz
Bit depth : 16 bits
Stream size : 489 MiB (31%)
Audio #2
ID : 4353 (0x1101)
Menu ID : 1 (0x1)
Format : AC-3
Format/Info : Audio Coding 3
Mode extension : CM (complete main)
Format settings, Endianness : Big
Codec ID : 129
Duration : 44mn 28s
Bit rate mode : Constant
Bit rate : 192 Kbps
Channel count : 2 channels
Channel positions : Front: L R
Sampling rate : 44.1 KHz
Bit depth : 16 bits
Compression mode : Lossy
Stream size : 61.1 MiB (4%)

Скриншоты

2 серия

MediaInfo

General
ID : 1 (0x1)
Complete name : E:\TORRENT\Dynamo.Magician.Impossible.S04\Dynamo.Magician.Impossible.S04E02.720p.HDTV.x264-FaiLED_new.ts
Format : MPEG-TS
File size : 1.62 GiB
Duration : 43mn 10s
Overall bit rate mode : Variable
Overall bit rate : 5 361 Kbps
Maximum Overall bit rate : 35.5 Mbps
Video
ID : 4113 (0x1011)
Menu ID : 1 (0x1)
Format : AVC
Format/Info : Advanced Video Codec
Format profile : [email protected]
Format settings, CABAC : Yes
Format settings, ReFrames : 5 frames
Codec ID : 27
Duration : 43mn 10s
Bit rate mode : Variable
Bit rate : 3 350 Kbps
Maximum bit rate : 40.0 Mbps
Width : 1 280 pixels
Height : 720 pixels
Display aspect ratio : 16:9
Frame rate : 25.000 fps
Color space : YUV
Chroma subsampling : 4:2:0
Bit depth : 8 bits
Scan type : Progressive
Bits/(Pixel*Frame) : 0.145
Stream size : 1.01 GiB (62%)
Language : English
Color primaries : BT.709
Transfer characteristics : BT.709
Matrix coefficients : BT.709
Audio #1
ID : 4352 (0x1100)
Menu ID : 1 (0x1)
Format : PCM
Format settings, Endianness : Big
Format settings, Sign : Signed
Muxing mode : Blu-ray
Codec ID : 128
Duration : 43mn 8s
Bit rate mode : Constant
Bit rate : 1 536 Kbps
Channel count : 2 channels
Channel positions : Front: L R
Sampling rate : 48.0 KHz
Bit depth : 16 bits
Stream size : 474 MiB (29%)
Audio #2
ID : 4353 (0x1101)
Menu ID : 1 (0x1)
Format : AC-3
Format/Info : Audio Coding 3
Mode extension : CM (complete main)
Format settings, Endianness : Big
Codec ID : 129
Duration : 43mn 10s
Bit rate mode : Constant
Bit rate : 192 Kbps
Channel count : 2 channels
Channel positions : Front: L R
Sampling rate : 44.1 KHz
Bit depth : 16 bits
Compression mode : Lossy
Stream size : 59.3 MiB (4%)

Скриншоты





3 серия

MediaInfo

General
ID : 1 (0x1)
Complete name : E:\TORRENT\Dynamo.Magician.Impossible.S04\Dynamo.Magician.Impossible.S04E03.720p.HDTV.x264-FaiLED_new.ts
Format : MPEG-TS
File size : 1.51 GiB
Duration : 44mn 58s
Overall bit rate mode : Variable
Overall bit rate : 4 814 Kbps
Maximum Overall bit rate : 35.5 Mbps
Video
ID : 4113 (0x1011)
Menu ID : 1 (0x1)
Format : AVC
Format/Info : Advanced Video Codec
Format profile : [email protected]
Format settings, CABAC : Yes
Format settings, ReFrames : 5 frames
Codec ID : 27
Duration : 44mn 58s
Bit rate mode : Variable
Bit rate : 2 830 Kbps
Maximum bit rate : 40.0 Mbps
Width : 1 280 pixels
Height : 720 pixels
Display aspect ratio : 16:9
Frame rate : 25.000 fps
Color space : YUV
Chroma subsampling : 4:2:0
Bit depth : 8 bits
Scan type : Progressive
Bits/(Pixel*Frame) : 0.123
Stream size : 911 MiB (59%)
Language : English
Color primaries : BT.709
Transfer characteristics : BT.709
Matrix coefficients : BT.709
Audio #1
ID : 4352 (0x1100)
Menu ID : 1 (0x1)
Format : PCM
Format settings, Endianness : Big
Format settings, Sign : Signed
Muxing mode : Blu-ray
Codec ID : 128
Duration : 44mn 57s
Bit rate mode : Constant
Bit rate : 1 536 Kbps
Channel count : 2 channels
Channel positions : Front: L R
Sampling rate : 48.0 KHz
Bit depth : 16 bits
Stream size : 494 MiB (32%)
Audio #2
ID : 4353 (0x1101)
Menu ID : 1 (0x1)
Format : AC-3
Format/Info : Audio Coding 3
Mode extension : CM (complete main)
Format settings, Endianness : Big
Codec ID : 129
Duration : 44mn 58s
Bit rate mode : Constant
Bit rate : 192 Kbps
Channel count : 2 channels
Channel positions : Front: L R
Sampling rate : 44.1 KHz
Bit depth : 16 bits
Compression mode : Lossy
Stream size : 61.8 MiB (4%)

Скриншоты





4 серия

MediaInfo

General
ID : 1 (0x1)
Complete name : E:\TORRENT\Dynamo.Magician.Impossible.S04\Dynamo.Magician.Impossible.S04E04.720p.HDTV.x264-FaiLED_new.ts
Format : MPEG-TS
File size : 1.39 GiB
Duration : 44mn 37s
Overall bit rate mode : Variable
Overall bit rate : 4 472 Kbps
Maximum Overall bit rate : 35.5 Mbps
Video
ID : 4113 (0x1011)
Menu ID : 1 (0x1)
Format : AVC
Format/Info : Advanced Video Codec
Format profile : [email protected]
Format settings, CABAC : Yes
Format settings, ReFrames : 5 frames
Codec ID : 27
Duration : 44mn 37s
Bit rate mode : Variable
Bit rate : 2 505 Kbps
Maximum bit rate : 40.0 Mbps
Width : 1 280 pixels
Height : 720 pixels
Display aspect ratio : 16:9
Frame rate : 25.000 fps
Color space : YUV
Chroma subsampling : 4:2:0
Bit depth : 8 bits
Scan type : Progressive
Bits/(Pixel*Frame) : 0.109
Stream size : 800 MiB (56%)
Language : English
Color primaries : BT.709
Transfer characteristics : BT.709
Matrix coefficients : BT.709
Audio #1
ID : 4352 (0x1100)
Menu ID : 1 (0x1)
Format : PCM
Format settings, Endianness : Big
Format settings, Sign : Signed
Muxing mode : Blu-ray
Codec ID : 128
Duration : 44mn 35s
Bit rate mode : Constant
Bit rate : 1 536 Kbps
Channel count : 2 channels
Channel positions : Front: L R
Sampling rate : 48.0 KHz
Bit depth : 16 bits
Stream size : 490 MiB (34%)
Audio #2
ID : 4353 (0x1101)
Menu ID : 1 (0x1)
Format : AC-3
Format/Info : Audio Coding 3
Mode extension : CM (complete main)
Format settings, Endianness : Big
Codec ID : 129
Duration : 44mn 37s
Bit rate mode : Constant
Bit rate : 192 Kbps
Channel count : 2 channels
Channel positions : Front: L R
Sampling rate : 44.1 KHz
Bit depth : 16 bits
Compression mode : Lossy
Stream size : 61.3 MiB (4%)

Скриншоты





Добавлены все серии 4 сезона. В сериях есть трюки без перевода, так как были вырезаны каналом Дискавери


Последний раз редактировалось: Fahriddinxon (2014-12-06 00:28), всего редактировалось 2 раз(а)

Создавать темы 13-Ноя-2014 17:06

[Профиль]  [ЛС] 

Топик был перенесен из форума Развлекательные телепередачи и шоу в форум Discovery
Fahriddinxon

Создавать темы 13-Ноя-2014 17:09

 

Fahriddinxon ®

Стаж: 5 лет 7 месяцев

Сообщений: 162

Симпатии: 23

Раздача пошла. учитывайте что у меня провайдер УО

Создавать темы 14-Ноя-2014 07:08

[Профиль]  [ЛС] 

Fahriddinxon ®

Стаж: 5 лет 7 месяцев

Сообщений: 162

Симпатии: 23

Извините недосмотрел до конца и получается нет перевода последней 3 минуты

Создавать темы 14-Ноя-2014 07:40

[Профиль]  [ЛС] 

pro100gosha74

Стаж: 4 года 4 месяца

Сообщений: 6

раздача будет?

Создавать темы 14-Дек-2014 09:10

[Профиль]  [ЛС] 
Показать сообщения:    
Ответить на тему

Текущее время: 24-Авг 07:55

Часовой пояс: UTC + 5



Вы не можете начинать темы
Вы не можете отвечать на сообщения
Вы не можете редактировать свои сообщения
Вы не можете удалять свои сообщения
Вы не можете голосовать в опросах
Вы не можете прикреплять файлы к сообщениям
Вы не можете скачивать файлы