Мой маленький пони. Дружба - это чудо / My Little Pony: Friendship Is Magic / Сезоны: 1,2,3 / Серии: 1-65 [2010-2013, комедия, семейный, фэнтези, WEB-DLRip] Dub (Карусель)

Ответить на тему
 

yarik ®

Стаж: 4 года 8 месяцев

Сообщений: 225

Симпатии: 123

Мой маленький пони. Дружба — это чудо
My Little Pony: Friendship Is Magic
Страна: США, Канада
Жанр: комедия, семейный, фэнтези
Сезоны: 1-3 Серии: 1-65 Годы: 2010-2013
Перевод: Профессиональный (дублированный)
Озвучка: Телеканал Карусель
Cубтитры: нет

Главная героиня — единорог по имени Твайлайт Спаркл, ученица Принцессы Селестии, которая всё время сидела за книгами и не желала ни с кем общаться. Видя, как героиня зарылась с головой в учёбу, Принцесса даёт ей задание найти друзей и посылает Твайлайт и её ассистента, дракона по имени Спайк, в Понивилль. Там она встречает разных пони, своих новых друзей: задиристую Рейнбоу Деш, элегантную Рарити, трудолюбивую Эплджек, робкую Флатершай, и гиперактивную Пинки Пай. Вместе они исследуют город, решают проблемы жителей и находят новых друзей. Каждый день Твайлайт узнаёт что-то новое о дружбе и сообщает об этом Селестии.

Первый сезон: 2010—2011

Качество: WEB-DLRip
Формат: AVI
Видео: XviD, 720x400, 23.976 fps, 1100 kbps
Аудио Rus: MP3 CBR, 48 kHz, 2 ch, 128 kbps
Аудио Eng: MP3 CBR, 48 kHz, 2 ch, 128 kbps
Список серий
01. Магия дружбы. Часть 1
02. Магия дружбы. Часть 2
03. Приглашение на бал
04. Сбор урожая
05. Заносчивый грифон
06. Хвастунишка
07. Укрощение дракона
08. Единство противоположностей
09. У страха глаза велики
10. Незваные гости
11. Последний день зимы
12. Отличительные знаки
13. Осенний забег
14. Рождённая для успеха
15. Интуиция Пинки
16. Звуковая радуга
17. Мастер взгляда
18. Шоу талантов
19. Искатели драгоценностей
20. Секреты дружбы
21. Яблоки раздора
22. Птица Феникс
23. История знаков отличия
24. Попытка ревности
25. День рождения
26. Самый лучший вечер

Скриншоты



MediaInfo

General
Complete name                            : /home/evgeniy/Видео/Дружба — это чудо/Сезон 1/01. Магия дружбы. Часть 1.avi
Format                                   : AVI
Format/Info                              : Audio Video Interleave
File size                                : 216 MiB
Duration                                 : 22mn 0s
Overall bit rate                         : 1 370 Kbps
Writing application                      : VirtualDubMod 1.5.10.2 (build 2540/release)
Writing library                          : VirtualDubMod build 2540/release
Video
ID                                       : 0
Format                                   : MPEG-4 Visual
Format settings, BVOP                    : 1
Format settings, QPel                    : No
Format settings, GMC                     : No warppoints
Format settings, Matrix                  : Default (H.263)
Muxing mode                              : Packed bitstream
Codec ID                                 : DX50
Codec ID/Hint                            : DivX 5
Duration                                 : 22mn 0s
Bit rate                                 : 1 100 Kbps
Width                                    : 720 pixels
Height                                   : 400 pixels
Display aspect ratio                     : 16:9
Frame rate                               : 23.976 fps
Color space                              : YUV
Chroma subsampling                       : 4:2:0
Bit depth                                : 8 bits
Scan type                                : Progressive
Compression mode                         : Lossy
Bits/(Pixel*Frame)                       : 0.159
Stream size                              : 173 MiB (80%)
Writing library                          : DivX 6.8.5 (UTC 2009-08-20)
Audio #1
ID                                       : 1
Format                                   : MPEG Audio
Format version                           : Version 1
Format profile                           : Layer 3
Mode                                     : Joint stereo
Codec ID                                 : 55
Codec ID/Hint                            : MP3
Duration                                 : 22mn 0s
Bit rate mode                            : Constant
Bit rate                                 : 128 Kbps
Channel(s)                               : 2 channels
Sampling rate                            : 48.0 KHz
Compression mode                         : Lossy
Stream size                              : 20.2 MiB (9%)
Alignment                                : Aligned on interleaves
Interleave, duration                     : 42 ms (1.00 video frame)
Interleave, preload duration             : 504 ms
Audio #2
ID                                       : 2
Format                                   : MPEG Audio
Format version                           : Version 1
Format profile                           : Layer 3
Mode                                     : Joint stereo
Codec ID                                 : 55
Codec ID/Hint                            : MP3
Duration                                 : 22mn 0s
Bit rate mode                            : Constant
Bit rate                                 : 128 Kbps
Channel(s)                               : 2 channels
Sampling rate                            : 48.0 KHz
Compression mode                         : Lossy
Stream size                              : 20.2 MiB (9%)
Alignment                                : Aligned on interleaves
Interleave, duration                     : 42 ms (1.00 video frame)
Interleave, preload duration             : 504 ms
Writing library                          : LAME3.98r
Encoding settings                        : -m j -V 4 -q 2 -lowpass 17 -b 128

Второй сезон: 2011—2012

Качество: WEB-DLRip
Формат: AVI
Видео: XviD, 720x400, 23.976 fps, 1100 kbps
Аудио Rus: MP3 CBR, 48 kHz, 2 ch, 128 kbps
Аудио Eng: MP3 CBR, 48 kHz, 2 ch, 128 kbps
Список серий
01. Возвращение Гармонии. Часть 1
02. Возвращение Гармонии. Часть 2
03. Нулевой урок
04. Затмение Луны
05. Настоящие сёстры
06. Загадочная лихорадка
07. Пусть лучший победит!
08. Таинственный защитник
09. Пони из высшего общества
10. Секрет моего роста
11. Канун Дня горящего очага
12. День семьи
13. Новорожденные пони
14. Пропажа
15. Сверхскоростная соковыжималка 6000
16. Читай и наслаждайся
17. День Сердец и Копыт
18. Настоящий друг
19. Настоять на своём
20. Давно пора
21. Поиски дракона
22. Ураган Флаттершай
23. Секреты и тайны Понивилля
24. Загадочное преступление в поезде Дружбы
25. Свадьба в Кантерлоте. Часть 1
26. Свадьба в Кантерлоте. Часть 2

Скриншоты



MediaInfo

General
Complete name                            : /home/evgeniy/Видео/Дружба — это чудо/Сезон 2/01. Возвращение Гармонии. Часть 1.avi
Format                                   : AVI
Format/Info                              : Audio Video Interleave
File size                                : 216 MiB
Duration                                 : 22mn 4s
Overall bit rate                         : 1 371 Kbps
Writing application                      : VirtualDubMod 1.5.10.2 (build 2540/release)
Writing library                          : VirtualDubMod build 2540/release
Video
ID                                       : 0
Format                                   : MPEG-4 Visual
Format profile                           : Advanced Simple@L5
Format settings, BVOP                    : 1
Format settings, QPel                    : No
Format settings, GMC                     : No warppoints
Format settings, Matrix                  : Custom
Codec ID                                 : XVID
Codec ID/Hint                            : XviD
Duration                                 : 22mn 4s
Bit rate                                 : 1 101 Kbps
Width                                    : 720 pixels
Height                                   : 400 pixels
Display aspect ratio                     : 16:9
Frame rate                               : 23.976 fps
Color space                              : YUV
Chroma subsampling                       : 4:2:0
Bit depth                                : 8 bits
Scan type                                : Progressive
Compression mode                         : Lossy
Bits/(Pixel*Frame)                       : 0.159
Stream size                              : 174 MiB (80%)
Writing library                          : XviD 64
Audio #1
ID                                       : 1
Format                                   : MPEG Audio
Format version                           : Version 1
Format profile                           : Layer 3
Mode                                     : Joint stereo
Mode extension                           : MS Stereo
Codec ID                                 : 55
Codec ID/Hint                            : MP3
Duration                                 : 22mn 4s
Bit rate mode                            : Constant
Bit rate                                 : 128 Kbps
Channel(s)                               : 2 channels
Sampling rate                            : 48.0 KHz
Compression mode                         : Lossy
Stream size                              : 20.2 MiB (9%)
Alignment                                : Aligned on interleaves
Interleave, duration                     : 42 ms (1.00 video frame)
Interleave, preload duration             : 504 ms
Audio #2
ID                                       : 2
Format                                   : MPEG Audio
Format version                           : Version 1
Format profile                           : Layer 3
Mode                                     : Joint stereo
Mode extension                           : MS Stereo
Codec ID                                 : 55
Codec ID/Hint                            : MP3
Duration                                 : 22mn 4s
Bit rate mode                            : Constant
Bit rate                                 : 128 Kbps
Channel(s)                               : 2 channels
Sampling rate                            : 48.0 KHz
Compression mode                         : Lossy
Stream size                              : 20.2 MiB (9%)
Alignment                                : Aligned on interleaves
Interleave, duration                     : 42 ms (1.00 video frame)
Interleave, preload duration             : 504 ms
Writing library                          : LAME3.98r
Encoding settings                        : -m j -V 4 -q 2 -lowpass 17 -b 128

Третий сезон: 2012—2013

Качество: WEB-DLRip
Формат: AVI
Видео: XviD, 720x400, 23.976 fps, 1210 kbps
Аудио Rus: MP3 CBR, 48 kHz, 2 ch, 128 kbps
Аудио Eng: MP3 CBR, 48 kHz, 2 ch, 128 kbps
Список серий
01. Кристальная Империя. Часть 1
02. Кристальная Империя. Часть 2
03. Слишком много Пинки Пай
04. Плохое яблоко
05. Магическая дуэль
06. Неспящие в Понивилле
07. Академия Чудо-молний
08. Слёт семьи Эппл
09. Спайк к вашим услугам
10. Перевоспитание в доме Флаттершай
11. Только для любимцев
12. Игры, в которые играют пони
13. Загадочное волшебное лекарство
Продолжение: Девочки из Эквестрии

Скриншоты



MediaInfo

General
Complete name                            : /home/evgeniy/Видео/Дружба — это чудо/Сезон 3/01. Кристальная Империя. Часть 1.avi
Format                                   : AVI
Format/Info                              : Audio Video Interleave
File size                                : 233 MiB
Duration                                 : 22mn 3s
Overall bit rate                         : 1 480 Kbps
Writing application                      : VirtualDubMod 1.5.10.2 (build 2540/release)
Writing library                          : VirtualDubMod build 2540/release
Video
ID                                       : 0
Format                                   : MPEG-4 Visual
Format profile                           : Advanced Simple@L5
Format settings, BVOP                    : 1
Format settings, QPel                    : No
Format settings, GMC                     : No warppoints
Format settings, Matrix                  : Custom
Codec ID                                 : XVID
Codec ID/Hint                            : XviD
Duration                                 : 22mn 3s
Bit rate                                 : 1 210 Kbps
Width                                    : 720 pixels
Height                                   : 400 pixels
Display aspect ratio                     : 16:9
Frame rate                               : 23.976 fps
Color space                              : YUV
Chroma subsampling                       : 4:2:0
Bit depth                                : 8 bits
Scan type                                : Progressive
Compression mode                         : Lossy
Bits/(Pixel*Frame)                       : 0.175
Stream size                              : 191 MiB (82%)
Writing library                          : XviD 64
Audio #1
ID                                       : 1
Format                                   : MPEG Audio
Format version                           : Version 1
Format profile                           : Layer 3
Mode                                     : Joint stereo
Mode extension                           : MS Stereo
Codec ID                                 : 55
Codec ID/Hint                            : MP3
Duration                                 : 22mn 3s
Bit rate mode                            : Constant
Bit rate                                 : 128 Kbps
Channel(s)                               : 2 channels
Sampling rate                            : 48.0 KHz
Compression mode                         : Lossy
Stream size                              : 20.2 MiB (9%)
Alignment                                : Aligned on interleaves
Interleave, duration                     : 42 ms (1.00 video frame)
Interleave, preload duration             : 504 ms
Writing library                          : LAME3.97
Audio #2
ID                                       : 2
Format                                   : MPEG Audio
Format version                           : Version 1
Format profile                           : Layer 3
Mode                                     : Joint stereo
Mode extension                           : MS Stereo
Codec ID                                 : 55
Codec ID/Hint                            : MP3
Duration                                 : 22mn 3s
Bit rate mode                            : Constant
Bit rate                                 : 128 Kbps
Channel(s)                               : 2 channels
Sampling rate                            : 48.0 KHz
Compression mode                         : Lossy
Stream size                              : 20.2 MiB (9%)
Alignment                                : Aligned on interleaves
Interleave, duration                     : 42 ms (1.00 video frame)
Interleave, preload duration             : 504 ms
Writing library                          : LAME3.98r
Encoding settings                        : -m j -V 4 -q 2 -lowpass 17 -b 128

 


Последний раз редактировалось: yarik (2014-11-15 19:50), всего редактировалось 1 раз

Создавать темы 14-Ноя-2014 19:40

[Профиль]  [ЛС] 

Страх

Стаж: 4 года

Сообщений: 1131

Симпатии: 448

Будешь заливать Полноценный фильм? вроде в этом году должен выйти.

Создавать темы 14-Ноя-2014 19:41

[Профиль]  [ЛС] 

yarik ®

Стаж: 4 года 8 месяцев

Сообщений: 225

Симпатии: 123

Скачать Девочки из Эквестрии / My Little Pony. Equestria Girls
Скачать Мой маленький пони: Девочки из Эквестрии - Радужный рок

Создавать темы 14-Ноя-2014 19:47

[Профиль]  [ЛС] 

Григорий К

Стаж: 5 лет 1 месяц

Сообщений: 569

Симпатии: 284

В продажу поступили какашки этих единорогов. Ура! Наконец-то!

Дружба - это чудо!

Создавать темы 15-Янв-2015 18:13

[Профиль]  [ЛС] 

Timofeus

Стаж: 4 года 5 месяцев

Сообщений: 35

Симпатии: 7

Всё, что не оригинальная озвучка - ересь, которую следует выжигать каленым железом. For the Emperor Equestria!

Создавать темы 26-Янв-2015 16:15

[Профиль]  [ЛС] 

yarik ®

Стаж: 4 года 8 месяцев

Сообщений: 225

Симпатии: 123

914722Всё, что не оригинальная озвучка - ересь, которую следует выжигать каленым железом. For the Emperor Equestria!
Маленьким детям ракосель будет норм, они и не заметят всего этого ужаса. Ну а для броней есть вторая дорожка с оригиналом ;)

Создавать темы 26-Янв-2015 16:53

[Профиль]  [ЛС] 
Показать сообщения:    
Ответить на тему

Текущее время: 19-Окт 17:53

Часовой пояс: UTC + 5



Вы не можете начинать темы
Вы не можете отвечать на сообщения
Вы не можете редактировать свои сообщения
Вы не можете удалять свои сообщения
Вы не можете голосовать в опросах
Вы не можете прикреплять файлы к сообщениям
Вы не можете скачивать файлы