AC/DC - Live at the Hippodrome Golders Green London (1977) [1997 г., Hard Rock, DVDRip]

Ответить на тему
 

Massageth ®

Стаж: 6 лет 9 месяцев

Сообщений: 116

Симпатии: 15

AC/DCLive at the Hippodrome Golders Green London (1977) Год выпуска: 1997
Жанр: Hard Rock
Продолжительность: 00:41:44
Описание: Зажигательное, живое выступление, еще молодых участников, группы AC/DC на сцене The Hippodrome Golders Green London в 1977 году. Шоу с максимальной энергией, молодость и задор. Группа выступает в своем первоначальном составе, с солистом Боном Скоттом, который умер в 1980 году.
Качество: DVDRip
Формат: AVI
Видео кодек: Другой MPEG4
Аудио кодек: MP3
Видео: AVI, MPEG-4 Visual, Advanced [email protected], 1454 Кбит/сек, 720x576, 5x4, 25,000.
Аудио: MP3, MPEG Audio Version 1 Layer 3 Joint stereo, Bit rate: 320 Kbps, 2 channels, 48.0 KHz.

Треклист

01. Let There Be Rock
02. Problem Child
03. Hell Ain`t A Bad Place To Be
04. Whole Lotta Rosie
05. Bad Boy Boogie
06. Rocker
07. T.N.T.

Состав группы

• Bon Scott – lead vocals
• Angus Young – lead guitar
• Malcolm Young – rhythm guitar, backing vocals
• Cliff Williams – bass, backing vocals
• Phil Rudd – drums.

Media Info


Общее
Полное имя : ACDC - Live At The Hippodrome Golders Green - London (1977).avi
Формат : AVI
Формат/Информация : Audio Video Interleave
Размер файла : 535 Мбайт
Продолжительность : 41 м.
Общий поток : 1792 Кбит/сек
Видео
Идентификатор : 0
Формат : MPEG-4 Visual
Профиль формата : Advanced [email protected]
Параметр BVOP формата : 1
Параметр QPel формата : Да
Параметр GMC формата : 3 точки перехода
Параметр матрицы формата : Default (H.263)
Режим смешивания : Сжатый битовый поток
Идентификатор кодека : MP4V
Идентификатор кодека/Информация : Apple QuickTime MPEG-4 native
Продолжительность : 41 м.
Битрейт : 1454 Кбит/сек
Ширина : 720 пикселей
Высота : 576 пикселей
Соотношение сторон : 5:4
Частота кадров : 25,000 кадров/сек
Стандарт вещания : PAL
Цветовое пространство : YUV
Субдискретизация насыщенности : 4:2:0
Битовая глубина : 8 бит
Тип развёртки : Прогрессивная
Метод сжатия : С потерями
Бит/(Пиксели*Кадры) : 0.140
Размер потока : 434 Мбайт (81%)
Библиотека кодирования : DivX 1393
Аудио
Идентификатор : 1
Формат : MPEG Audio
Версия формата : Version 1
Профиль формата : Layer 3
Режим : Joint stereo
Идентификатор кодека : 55
Идентификатор кодека/Подсказка : MP3
Продолжительность : 41 м.
Вид битрейта : Постоянный
Битрейт : 320 Кбит/сек
Каналы : 2 канала
Частота : 48,0 КГц
Метод сжатия : С потерями
Размер потока : 95,5 Мбайт (18%)
Выравнивание : Соединение по промежуткам
Продолжительность промежутка : 24 мс. (0,60 видеокадр)
Время предзагрузки промежутка : 1008 мс.

Скриншоты

Создавать темы 14-Ноя-2014 21:04

[Профиль]  [ЛС] 
Показать сообщения:    
Ответить на тему

Текущее время: 21-Авг 07:45

Часовой пояс: UTC + 5



Вы не можете начинать темы
Вы не можете отвечать на сообщения
Вы не можете редактировать свои сообщения
Вы не можете удалять свои сообщения
Вы не можете голосовать в опросах
Вы не можете прикреплять файлы к сообщениям
Вы не можете скачивать файлы