AC/DC - Let There Be Rock (1979) [2011 г., Hard Rock, DVDRip]

Ответить на тему
 

Massageth ®

Стаж: 6 лет 11 месяцев

Сообщений: 116

Симпатии: 15

AC/DCLet There Be Rock (1979) Год выпуска: 2011
Страна: Австралия
Жанр: Hard Rock
Продюсеры: Eric Dionysius, Eric Mistler
Лейбл: Warner Home Video
Продолжительность: 01:33:52

Описание: Классический концертный фильм AC/DC - "Let There Be Rock", снятый 9 декабря 1979 года в Париже, Франция, в зале "Pavillion De Paris". Помимо концерта, видео содержит интервью с участниками группы.
Дополнительная информация: С 1980 года AC/DC: Let There Be Rock был доступен в формате VHS. В 1997 году вышла аудиоверсия концерта под названием Let There Be Rock: The Movie – Live in Paris, содержащая исполнение не попавшей в видеоверсию «T.N.T.». 7 июня 2011 года концерт был издан на DVD и Blu-Ray. Коллекционная версия содержит 32-страничный буклет, концертные фотографии и фирменный медиатор. Название концертного видео совпадает с названием студийного альбома AC/DC Let There Be Rock. Все композиции написаны Ангусом Янгом, Малкольмом Янгом и Боном Скоттом.

Качество: DVDRip
Формат: AVI
Видео кодек: Другой MPEG4
Аудио кодек: MP3
Видео: AVI, MPEG-4 Visual, Advanced [email protected], 1303 Кбит/сек, 720x540, 4:3, 25,000.
Аудио: MP3, MPEG Audio Version 1 Layer 3 Joint stereo, Bit rate: 320 Kbps, 2 channels, 48.0 KHz.

Треклист

01. Live Wire
02. Shot Down In Flames
03. Hell Ain't A Bad Place To Be
04. Sin City
05. Walk All Over You
06. Bad Boy Boogie
07. The Jack
08. Highway To Hell
09. Girls Got Rhythm
10. High Voltage
11. Whole Lotta Rosie
12. Rocker
13. Let There Be Rock

Состав группы

Бон Скотт — вокал
Ангус Янг — соло-гитара, бэк-вокал
Малкольм Янг — ритм-гитара, бэк-вокал
Клифф Уильямс — бас-гитара, бэк-вокал
Фил Радд — ударные, перкуссия

Media Info

Общее
Полное имя : ACDC - Let There Be Rock (1979).avi
Формат : AVI
Формат/Информация : Audio Video Interleave
Профиль формата : OpenDML
Размер файла : 1,07 Гбайт
Продолжительность : 1 ч. 33 м.
Общий поток : 1639 Кбит/сек
Видео
Идентификатор : 0
Формат : MPEG-4 Visual
Профиль формата : Advanced [email protected]
Параметр BVOP формата : 1
Параметр QPel формата : Да
Параметр GMC формата : 3 точки перехода
Параметр матрицы формата : Default (H.263)
Режим смешивания : Сжатый битовый поток
Идентификатор кодека : MP4V
Идентификатор кодека/Информация : Apple QuickTime MPEG-4 native
Продолжительность : 1 ч. 33 м.
Битрейт : 1303 Кбит/сек
Ширина : 720 пикселей
Высота : 540 пикселей
Соотношение сторон : 4:3
Частота кадров : 25,000 кадров/сек
Цветовое пространство : YUV
Субдискретизация насыщенности : 4:2:0
Битовая глубина : 8 бит
Тип развёртки : Прогрессивная
Метод сжатия : С потерями
Бит/(Пиксели*Кадры) : 0.134
Размер потока : 875 Мбайт (79%)
Библиотека кодирования : DivX 1393
Аудио
Идентификатор : 1
Формат : MPEG Audio
Версия формата : Version 1
Профиль формата : Layer 3
Режим : Joint stereo
Идентификатор кодека : 55
Идентификатор кодека/Подсказка : MP3
Продолжительность : 1 ч. 33 м.
Вид битрейта : Постоянный
Битрейт : 320 Кбит/сек
Каналы : 2 канала
Частота : 48,0 КГц
Метод сжатия : С потерями
Размер потока : 215 Мбайт (20%)
Выравнивание : Соединение по промежуткам
Продолжительность промежутка : 24 мс. (0,60 видеокадр)
Время предзагрузки промежутка : 1008 мс.

Скриншоты

Создавать темы 15-Ноя-2014 01:49

[Профиль]  [ЛС] 
Показать сообщения:    
Ответить на тему

Текущее время: 20-Окт 03:04

Часовой пояс: UTC + 5



Вы не можете начинать темы
Вы не можете отвечать на сообщения
Вы не можете редактировать свои сообщения
Вы не можете удалять свои сообщения
Вы не можете голосовать в опросах
Вы не можете прикреплять файлы к сообщениям
Вы не можете скачивать файлы