Halo: Затмение / Halo: Nightfall / Полный 1 - сезон / (Серджо Мимика-Геззан) [2014, фантастика, боевик, триллер, приключения, WEBRip] MVO (AlexFilm)

Ответить на тему
 

Zab ®

Стаж: 6 лет 5 месяцев

Сообщений: 476

Симпатии: 424

Halo: Затмение | Halo: Nightfall
Полный 1 сезон
«Survival is a choice» -Год выпуска: 2014
Страна: США
Жанр: фантастика, боевик, триллер, приключения
Продолжительность: ~ 00:27:00
Язык: Русский + Английский
Перевод: Профессиональный (многоголосый закадровый) (AlexFilm)
Субтитры: нет-Режиссеры: Дин Уайт и др.
В ролях: Алексис Родни, Александр Бхат, Сара Армстронг, Александра Бхат, Шон Блэйни, Шейнин Бреннан, Кристина Чонг, Майк Колтер, Кристиан Райан Контрерарс и др.-Описание: Действие сериала начнётся с событий на одной из Внешних колоний человечества, Седре. Отряд Службы военной разведки под командованием капитан-лейтенанта Джеймсона Локка высажен на планету с целью расследовать предполагаемую террористическую деятельность. Отряд подвергается атаке радикалов, и становится известно, что те пытаются использовать некое биологическое оружие, способное влиять только на людей. Ради своего выживания оперативники отряда вынуждены работать вместе с одним из местных командиров Рэндаллом Аикеном. Оставаясь на Седре, отряд обнаруживает инопланетный артефакт. Тем временем на орбиту колонии прибывает частично функциональная секция уничтоженной Установки 04.-Релиз:
Перевод: Константин Кривоногов
Монтаж и сведение звука: Михаил Шорыгин
Роли озвучивали:
  • Ирина Воронова
  • Михаил Суслов
  • Владимир Курдов
  • Константин Погодаев-Качество: WEBRip
    Формат: AVI
    Видео кодек: XviD
    Аудио кодек: MP3
    Видео: 720x304 (2.37:1), 23.976 fps, XviD build 50 ~1486 kbps avg, 0.283 bit/pixel
    Аудио Rus: 48 kHz, MPEG Layer 3, 2 ch, ~128.00 kbps avg
    Аудио Eng: 48 kHz, MPEG Layer 3, 2 ch, ~128.00 kbps avg- -

    MI

    Format : AVI
    Format/Info : Audio Video Interleave
    File size : 351 MiB
    Duration : 27mn 54s
    Overall bit rate : 1 756 Kbps
    Writing application : VirtualDubMod 1.5.10.2 (build 2540/release)
    Writing library : VirtualDubMod build 2540/release
    Video
    ID : 0
    Format : MPEG-4 Visual
    Format profile : Advanced [email protected]
    Format settings, BVOP : No
    Format settings, QPel : No
    Format settings, GMC : No warppoints
    Format settings, Matrix : Default (H.263)
    Codec ID : XVID
    Codec ID/Hint : XviD
    Duration : 27mn 54s
    Bit rate : 1 486 Kbps
    Width : 720 pixels
    Height : 304 pixels
    Display aspect ratio : 2.35:1
    Frame rate : 23.976 fps
    Color space : YUV
    Chroma subsampling : 4:2:0
    Bit depth : 8 bits
    Scan type : Progressive
    Compression mode : Lossy
    Bits/(Pixel*Frame) : 0.283
    Stream size : 297 MiB (85%)
    Writing library : XviD 73
    Audio #1
    ID : 1
    Format : MPEG Audio
    Format version : Version 1
    Format profile : Layer 3
    Mode : Joint stereo
    Mode extension : MS Stereo
    Codec ID : 55
    Codec ID/Hint : MP3
    Duration : 27mn 54s
    Bit rate mode : Constant
    Bit rate : 128 Kbps
    Channel(s) : 2 channels
    Sampling rate : 48.0 KHz
    Compression mode : Lossy
    Stream size : 25.6 MiB (7%)
    Alignment : Aligned on interleaves
    Interleave, duration : 42 ms (1.00 video frame)
    Interleave, preload duration : 504 ms
    Writing library : LAME3.90.3
    Audio #2
    ID : 2
    Format : MPEG Audio
    Format version : Version 1
    Format profile : Layer 3
    Mode : Joint stereo
    Mode extension : MS Stereo
    Codec ID : 55
    Codec ID/Hint : MP3
    Duration : 27mn 54s
    Bit rate mode : Constant
    Bit rate : 128 Kbps
    Channel(s) : 2 channels
    Sampling rate : 48.0 KHz
    Compression mode : Lossy
    Stream size : 25.6 MiB (7%)
    Alignment : Aligned on interleaves
    Interleave, duration : 42 ms (1.00 video frame)
    Interleave, preload duration : 504 ms
    Writing library : LAME3.90.3

    Скриншоты



  • Последний раз редактировалось: Zab (2015-03-05 16:02), всего редактировалось 10 раз(а)

    Создавать темы 15-Ноя-2014 08:15

    [Профиль]  [ЛС] 

    SNIL

    Стаж: 5 лет 9 месяцев

    Сообщений: 2624

    Симпатии: 341

    Ну глянем, надеюсь не будет мутным как первый сезон!

    Создавать темы 15-Ноя-2014 09:07

    [Профиль]  [ЛС] 

    SNIL

    Стаж: 5 лет 9 месяцев

    Сообщений: 2624

    Симпатии: 341

    894622Halo
    Ну может я не совсем правильно выразился https://tas-ix.net/viewtopic.php?t=75775 хз связаны ли они сюжетом, но временными рамками вселенной вродь связаны

    Создавать темы 15-Ноя-2014 16:04

    [Профиль]  [ЛС] 

    Zab ®

    Стаж: 6 лет 5 месяцев

    Сообщений: 476

    Симпатии: 424

    :cd: Добавлена 2 - серия :cc:

    Создавать темы 26-Ноя-2014 09:14

    [Профиль]  [ЛС] 

    Zab ®

    Стаж: 6 лет 5 месяцев

    Сообщений: 476

    Симпатии: 424

    :cd: Добавлена 3 - серия! :cc:

    Создавать темы 30-Ноя-2014 12:19

    [Профиль]  [ЛС] 

    RampageStyle

    Стаж: 4 года 9 месяцев

    Сообщений: 36

    Симпатии: 5

    Спасибо xxxxx, respect!

    Создавать темы 01-Дек-2014 20:22

    [Профиль]  [ЛС] 

    Zab ®

    Стаж: 6 лет 5 месяцев

    Сообщений: 476

    Симпатии: 424

    :cd: Добавлена 4 - серия! :cc:

    Создавать темы 05-Дек-2014 02:28

    [Профиль]  [ЛС] 

    Zab ®

    Стаж: 6 лет 5 месяцев

    Сообщений: 476

    Симпатии: 424

    :cd: Добавлена 5 - серия! Конец Сезона! :cc:

    Создавать темы 12-Дек-2014 07:51

    [Профиль]  [ЛС] 

    Anvar29

    Стаж: 7 лет 2 месяца

    Сообщений: 94

    Симпатии: 5

    Отпишитесь как сериал?

    Создавать темы 13-Дек-2014 10:28

    [Профиль]  [ЛС] 

    RampageStyle

    Стаж: 4 года 9 месяцев

    Сообщений: 36

    Симпатии: 5

    xxxxx, когда 2-сезон?

    Создавать темы 13-Дек-2014 18:00

    [Профиль]  [ЛС] 
    Показать сообщения:    
    Ответить на тему

    Текущее время: 20-Окт 11:44

    Часовой пояс: UTC + 5



    Вы не можете начинать темы
    Вы не можете отвечать на сообщения
    Вы не можете редактировать свои сообщения
    Вы не можете удалять свои сообщения
    Вы не можете голосовать в опросах
    Вы не можете прикреплять файлы к сообщениям
    Вы не можете скачивать файлы