История рока: Группа «Pink Floyd» – Предисловие к фильму Pink Floyd - «The Making The Dark Side of the Moon» [2009 г., Документальный, Музыка, TVRip]

Ответить на тему
 

Massageth ®

Стаж: 6 лет 9 месяцев

Сообщений: 116

Симпатии: 15

История рока: Группа «Pink Floyd» Предисловие к фильму Pink Floyd - «The Making The Dark Side of the Moon» Год выпуска: 2009
Страна: Россия
Жанр: Документальный, Музыка
Продолжительность: 00:14:38

Описание: Предисловие ведущего программы "История рока" Александра Устинова и Владимира Шахрина (лидера группы "Чайф") к документальному фильму Pink Floyd - «The Making The Dark Side of the Moon».
Качество: TVRip
Формат: AVI
Видео кодек: DivX
Аудио кодек: MP3
Видео: AVI, MPEG-4 Visual 1, 1198 Кбит/сек, 608x304, 2,000, 25,000.
Аудио: MP3, MPEG Audio Version 1 Layer 3, Bit rate: 128 Kbps, 2 channels, 48.0 KHz.

Media Info

Общее
Полное имя : История рока Группа «Pink Floyd» – Предисловие Владимира Шахрина к фильму Pink Floyd - «The Making The Dark Side of the Moon».avi
Формат : AVI
Формат/Информация : Audio Video Interleave
Размер файла : 140 Мбайт
Продолжительность : 14 м.
Общий поток : 1336 Кбит/сек
Библиотека кодирования : VirtualDub build 18160/release
Видео
Идентификатор : 0
Формат : MPEG-4 Visual
Параметр BVOP формата : 1
Параметр QPel формата : Нет
Параметр GMC формата : Без точки перехода
Параметр матрицы формата : Default (H.263)
Режим смешивания : Сжатый битовый поток
Идентификатор кодека : DX50
Идентификатор кодека/Подсказка : DivX 5
Продолжительность : 14 м.
Битрейт : 1198 Кбит/сек
Ширина : 608 пикселей
Высота : 304 пикселя
Соотношение сторон : 2,000
Частота кадров : 25,000 кадров/сек
Цветовое пространство : YUV
Субдискретизация насыщенности : 4:2:0
Битовая глубина : 8 бит
Тип развёртки : Прогрессивная
Метод сжатия : С потерями
Бит/(Пиксели*Кадры) : 0.259
Размер потока : 125 Мбайт (90%)
Библиотека кодирования : DivX 5.2.1 (DrDivX 106) (UTC 2004-09-08)
Аудио
Идентификатор : 1
Формат : MPEG Audio
Версия формата : Version 1
Профиль формата : Layer 3
Идентификатор кодека : 55
Идентификатор кодека/Подсказка : MP3
Продолжительность : 14 м.
Вид битрейта : Постоянный
Битрейт : 128 Кбит/сек
Каналы : 2 канала
Частота : 48,0 КГц
Метод сжатия : С потерями
Размер потока : 13,4 Мбайт (10%)
Выравнивание : Разделение по промежуткам
Продолжительность промежутка : 40 мс. (1,00 видеокадр)
Время предзагрузки промежутка : 500 мс.

Скриншоты

Ссылка на Pink Floyd - «The Making The Dark Side of the Moon»

https://tas-ix.net/viewtopic.php?t=100681

Создавать темы 16-Ноя-2014 00:13

[Профиль]  [ЛС] 
Показать сообщения:    
Ответить на тему

Текущее время: 16-Авг 22:26

Часовой пояс: UTC + 5



Вы не можете начинать темы
Вы не можете отвечать на сообщения
Вы не можете редактировать свои сообщения
Вы не можете удалять свои сообщения
Вы не можете голосовать в опросах
Вы не можете прикреплять файлы к сообщениям
Вы не можете скачивать файлы