Pink Floyd - «The Making The Dark Side of the Moon» [2009 г., Psyhedelic Rock, TVRip]

Ответить на тему
 

Massageth ®

Стаж: 6 лет 11 месяцев

Сообщений: 116

Симпатии: 15

Pink Floyd«The Making The Dark Side of the Moon» Год выпуска: 2009
Страна: Великобритания
Город: Лондон
Лейбл: EMI
Жанр: Psyhedelic Rock
Продолжительность: 00:49:08

Описание: В фильме демонстрируется документальная лента о создании, пожалуй, самого замечательного альбома группы - «The Dark Side of the Moon», о том как делали знаменитую петлю в "Money", где и как выключали дилеи и ревера, чтобы добиться "аs virgin" звучания гитары Гилмора и всякое такое.
Перевод: Одноголосый, закадровый
Качество: TVRip
Формат: AVI
Видео кодек: DivX
Аудио кодек: MP3
Видео: AVI, MPEG-4 Visual 1, 1198 Кбит/сек, 592x336, 16:9, 25,000.
Аудио: MP3, MPEG Audio Version 1 Layer 3, Bit rate: 128 Kbps, 2 channels, 48.0 KHz.

Дополнительная информация об альбоме

Альбом 1973 года The Dark Side of the Moon («Тёмная сторона Луны») стал звёздным часом для группы. Это была концептуальная запись — не просто собрание песен на одном диске, а работа, проникнутая единой, связующей идеей давления современного мира на психику человека. Идея была мощным катализатором творчества группы.
Совместно её члены составили список тем, раскрываемых в альбоме: композиция «On The Run» («На бегу») рассказывала о паранойе; «Time» («Время») описывала приближение старости и бессмысленную трату жизни; «The Great Gig In The Sky» («Шоу на небесах», первоначально называлась «Mortality Sequence» — «Смертная череда») повествует о смерти и религии; «Money» рассказывает о деньгах, которые приходят со славой и овладевают человеком; «Us And Them» («Мы и они») говорит о конфликтах внутри общества; «Brain Damage» посвящена безумию.
Благодаря использованию нового 16-дорожечного звукозаписывающего оборудования на студии «Abbey Road», почти девяти месяцам, ушедшим на запись, и стараниям звукоинженера Алана Парсонса, альбом получился беспрецедентным и вошёл в сокровищницу звукозаписи всех времён.
Сингл «Money» попал в двадцатку хит-парада в США, а альбом стал № 1 (в Великобритании только № 2) и оставался в «Топ 200» США на протяжении 741 недели, включая 591 неделю с 1973 по 1988 годы последовательно, и несколько раз попадая на первое место. Альбом побил множество рекордов, и стал одним из самых продаваемых альбомов всех времён.

Информация о группе

Pink Floyd — британская рок-группа. Знаменита своими философскими текстами, акустическими экспериментами, инновациями в оформлении альбомов и грандиозными шоу. Является одной из влиятельных и наиболее успешных групп в рок-музыке — 74,5 млн проданных альбомов в США (седьмое место), в мире же было продано около 300 млн (не считая сольных работ).
Группа была основана в 1965 году однокурсниками по архитектурному факультету лондонского политехнического института (Regent Str. Polytechnic) Ричардом Райтом (клавишные, вокал), Роджером Уотерсом (бас-гитара, вокал), Ником Мэйсоном (ударные) и их кембриджским другом Сидом Барреттом (вокал, гитара). В 1968 году к четвёрке присоединился Дэвид Гилмор, который заменил Барретта, после того как последнему пришлось покинуть группу. После ухода Барретта доминирующими фигурами в группе вначале стали бас-гитарист Роджер Уотерс и клавишник Ричард Райт, но со временем Райт уступил позиции гитаристу Дэвиду Гилмору. Уотерс с каждым новым альбомом закреплял лидерство, постепенно придя к единоначалию. После ухода Барретта и вплоть до 1983 года Уотерс был автором подавляющего большинства текстов песен группы (начиная с 1973 года в течение десяти лет тексты писал только он один) и главным автором самого концептуального альбома группы The Wall. Последний альбом группы (The Division Bell), последний тур и негласный распад состоялись в 1994 году. Каждый из участников группы сделал в той или иной степени успешную карьеру, в основном опираясь на опыт альма-матер. Последнее выступление классического состава произошло в июле 2005 года на концерте Live 8.

Состав группы

(1965—1967)
Сид Барретт — гитара, вокал
Роджер Уотерс — бас-гитара, вокал
Ричард Райт — клавишные, вокал
Ник Мэйсон — ударные
(1967—1968)
Сид Барретт — гитара, вокал
Роджер Уотерс — бас-гитара, вокал
Ричард Райт — клавишные, вокал
Ник Мэйсон — ударные
Дэвид Гилмор — вокал, гитара
(1968—1981)
Роджер Уотерс — бас-гитара, вокал
Ричард Райт — клавишные, вокал
Ник Мэйсон — ударные
Дэвид Гилмор — вокал, гитара
(1981—1985)
Роджер Уотерс — бас-гитара, вокал
Ник Мэйсон — ударные
Дэвид Гилмор — вокал, гитара
(1985—1987)
Ник Мэйсон — ударные
Дэвид Гилмор — вокал, гитара
(1987—1996)
Ричард Райт — клавишные, вокал
Ник Мэйсон — ударные
Дэвид Гилмор — вокал, гитара
(2005)
Роджер Уотерс — бас-гитара, вокал
Ричард Райт — клавишные, вокал
Ник Мэйсон — ударные
Дэвид Гилмор — вокал, гитара
(2013—2014)
Ник Мэйсон — ударные
Дэвид Гилмор — вокал, гитара

Media Info

Общее
Полное имя : Pink Floyd - «The Making The Dark Side of the Moon» (2009).avi
Формат : AVI
Формат/Информация : Audio Video Interleave
Размер файла : 470 Мбайт
Продолжительность : 49 м.
Общий поток : 1336 Кбит/сек
Библиотека кодирования : VirtualDub build 18160/release
Видео
Идентификатор : 0
Формат : MPEG-4 Visual
Параметр BVOP формата : 1
Параметр QPel формата : Нет
Параметр GMC формата : Без точки перехода
Параметр матрицы формата : Default (H.263)
Режим смешивания : Сжатый битовый поток
Идентификатор кодека : DX50
Идентификатор кодека/Подсказка : DivX 5
Продолжительность : 49 м.
Битрейт : 1198 Кбит/сек
Ширина : 592 пикселя
Высота : 336 пикселей
Соотношение сторон : 16:9
Частота кадров : 25,000 кадров/сек
Цветовое пространство : YUV
Субдискретизация насыщенности : 4:2:0
Битовая глубина : 8 бит
Тип развёртки : Прогрессивная
Метод сжатия : С потерями
Бит/(Пиксели*Кадры) : 0.241
Размер потока : 421 Мбайт (90%)
Библиотека кодирования : DivX 5.2.1 (DrDivX 106) (UTC 2004-09-08)
Аудио
Идентификатор : 1
Формат : MPEG Audio
Версия формата : Version 1
Профиль формата : Layer 3
Идентификатор кодека : 55
Идентификатор кодека/Подсказка : MP3
Продолжительность : 49 м.
Вид битрейта : Постоянный
Битрейт : 128 Кбит/сек
Каналы : 2 канала
Частота : 48,0 КГц
Метод сжатия : С потерями
Размер потока : 45,0 Мбайт (10%)
Выравнивание : Разделение по промежуткам
Продолжительность промежутка : 40 мс. (1,00 видеокадр)
Время предзагрузки промежутка : 500 мс.

Скриншоты

Создавать темы 16-Ноя-2014 01:43

[Профиль]  [ЛС] 
Показать сообщения:    
Ответить на тему

Текущее время: 24-Окт 01:53

Часовой пояс: UTC + 5



Вы не можете начинать темы
Вы не можете отвечать на сообщения
Вы не можете редактировать свои сообщения
Вы не можете удалять свои сообщения
Вы не можете голосовать в опросах
Вы не можете прикреплять файлы к сообщениям
Вы не можете скачивать файлы