САВАТ / SAVATE (Айзэк Флорентайн / Isaac Florentine) [1995 г., боевик, вестерн, DVDRip]

Ответить на тему
 

Ershov ®

Стаж: 4 года 9 месяцев

Сообщений: 61

Симпатии: 6

САВАТ / SAVATE
-Год выпуска: 1995
Страна: США
Жанр: боевик, вестерн
Продолжительность: 01:28:03-Перевод #1: Профессиональный (многоголосый, закадровый)
Перевод #2: Профессиональный (многоголосый закадровый) - "ФильмЭкспорт" по заказу СТС
Перевод #3: Авторский (одноголосый закадровый) - Юрий Сербин
Оригинальная аудиодорожка: английский
Cубтитры: нет-Режиссер: Айзэк Флорентайн / Isaac Florentine
В ролях: Оливье Грюнер /Olivier Gruner/, Иэн Зиринг /Ian Ziering/, Эшли Лоренс /Ashley Laurence/, Майкл Пэлэнс, Дон Гибб, Марк Сингер /Marc Singer/, Джеймс Бролин /James Brolin/-Описание: Проезжая по знойной пустыне Техаса, Кеин Паркер и его сестра Мэри находят и отвозят на свою ферму потерявшего сознание офицера французской армии Джозефа Чарльмонта, известного необыкновенной манерой драться. Чувствуя признательность к Паркерам, Чарльмонт заступается за них, когда бандиты, нанятые землевладельцем Джеком Бенедиктом, пытаются прогнать Кейна, Мэри и других фермеров с их земли. Джозеф влюбляется в Мэри и оказывается втянутым в борьбу с Бенедиктом. В результате одного из нападений погибает Кейн. Чарльмонт остается единственной надеждой отчаявшихся людей. Он принимает вызов своего заклятого врага — наемного убийцы Бенедикта, великолепно владеющего приемами савата, убившего его лучшего друга. Люди Бенедикта берут Мэри в заложницы, и Чарльмонт готовится к борьбе не на жизнь, а на смерть…-Качество: DVDRip
Формат: AVI
Видео кодек: XviD
Аудио кодек: MP3
Видео: 608x464 (1.31:1), 25 fps, XviD build 50 ~1977 kbps avg, 0.28 bit/pixel
Аудио #1: 48 kHz, MPEG Layer 3, 2 ch, ~128.00 kbps
Аудио #2: 48 kHz, MPEG Layer 3, 2 ch, ~128.00 kbps
Аудио #3: 48 kHz, MPEG Layer 3, 2 ch, ~128.00 kbps
Аудио #4: 48 kHz, MPEG Layer 3, 2 ch, ~128.00 kbps

MediaInfo

Общее
Полное имя : Savate.avi
Формат : AVI
Формат/Информация : Audio Video Interleave
Размер файла : 1,55 Гбайт
Продолжительность : 1 ч. 28 м.
Общий поток : 2516 Кбит/сек
Программа кодирования : VirtualDubMod 1.5.10.3 (build 2550/release)
Библиотека кодирования : VirtualDubMod build 2550/release
Видео
Идентификатор : 0
Формат : MPEG-4 Visual
Профиль формата : Advanced [email protected]
Параметр BVOP формата : 1
Параметр QPel формата : Нет
Параметр GMC формата : Без точки перехода
Параметр матрицы формата : Выборочная
Идентификатор кодека : XVID
Идентификатор кодека/Подсказка : XviD
Продолжительность : 1 ч. 28 м.
Битрейт : 1980 Кбит/сек
Ширина : 608 пикселей
Высота : 464 пикселя
Соотношение сторон : 4:3
Частота кадров : 25,000 кадров/сек
Цветовое пространство : YUV
Субдискретизация насыщенности : 4:2:0
Битовая глубина : 8 бит
Тип развёртки : Прогрессивная
Метод сжатия : С потерями
Бит/(Пиксели*Кадры) : 0.281
Размер потока : 1,22 Гбайт (79%)
Библиотека кодирования : XviD 1.2.1 (UTC 2008-12-04)
Аудио #1
Идентификатор : 1
Формат : MPEG Audio
Версия формата : Version 1
Профиль формата : Layer 3
Режим : Joint stereo
Расширение режима : MS Stereo
Идентификатор кодека : 55
Идентификатор кодека/Подсказка : MP3
Продолжительность : 1 ч. 28 м.
Вид битрейта : Постоянный
Битрейт : 128 Кбит/сек
Каналы : 2 канала
Частота : 48,0 КГц
Метод сжатия : С потерями
Размер потока : 80,6 Мбайт (5%)
Выравнивание : Соединение по промежуткам
Продолжительность промежутка : 40 мс. (1,00 видеокадр)
Время предзагрузки промежутка : 504 мс.
Аудио #2
Идентификатор : 2
Формат : MPEG Audio
Версия формата : Version 1
Профиль формата : Layer 3
Режим : Joint stereo
Расширение режима : MS Stereo
Идентификатор кодека : 55
Идентификатор кодека/Подсказка : MP3
Продолжительность : 1 ч. 28 м.
Вид битрейта : Постоянный
Битрейт : 128 Кбит/сек
Каналы : 2 канала
Частота : 48,0 КГц
Метод сжатия : С потерями
Размер потока : 80,6 Мбайт (5%)
Выравнивание : Соединение по промежуткам
Продолжительность промежутка : 40 мс. (1,00 видеокадр)
Время предзагрузки промежутка : 504 мс.
Аудио #3
Идентификатор : 3
Формат : MPEG Audio
Версия формата : Version 1
Профиль формата : Layer 3
Режим : Joint stereo
Расширение режима : MS Stereo
Идентификатор кодека : 55
Идентификатор кодека/Подсказка : MP3
Продолжительность : 1 ч. 28 м.
Вид битрейта : Постоянный
Битрейт : 128 Кбит/сек
Каналы : 2 канала
Частота : 48,0 КГц
Метод сжатия : С потерями
Размер потока : 80,6 Мбайт (5%)
Выравнивание : Соединение по промежуткам
Продолжительность промежутка : 40 мс. (1,00 видеокадр)
Время предзагрузки промежутка : 504 мс.
Аудио #4
Идентификатор : 4
Формат : MPEG Audio
Версия формата : Version 1
Профиль формата : Layer 3
Режим : Joint stereo
Расширение режима : MS Stereo
Идентификатор кодека : 55
Идентификатор кодека/Подсказка : MP3
Продолжительность : 1 ч. 28 м.
Вид битрейта : Постоянный
Битрейт : 128 Кбит/сек
Каналы : 2 канала
Частота : 48,0 КГц
Метод сжатия : С потерями
Размер потока : 80,6 Мбайт (5%)
Выравнивание : Соединение по промежуткам
Продолжительность промежутка : 40 мс. (1,00 видеокадр)
Время предзагрузки промежутка : 504 мс.

Скриншоты





Создавать темы 16-Ноя-2014 08:00

[Профиль]  [ЛС] 

Li Yoxa

Стаж: 6 лет 10 месяцев

Сообщений: 31

Симпатии: 1

Спасибо! Ещё подростком сморел фильм.

Создавать темы 17-Ноя-2014 09:19

[Профиль]  [ЛС] 
Показать сообщения:    
Ответить на тему

Текущее время: 21-Ноя 00:03

Часовой пояс: UTC + 5



Вы не можете начинать темы
Вы не можете отвечать на сообщения
Вы не можете редактировать свои сообщения
Вы не можете удалять свои сообщения
Вы не можете голосовать в опросах
Вы не можете прикреплять файлы к сообщениям
Вы не можете скачивать файлы