Колесницы Богов. Воспоминания о будущем / Возвращение к звёздам / Chariots of the Gods. Er (Харальд Рейнл / Harald Reinl) [1970 г., Документальный, DVDRip]

Ответить на тему
 

nravich ®

Стаж: 4 года

Сообщений: 38

Симпатии: 16

Колесницы Богов. Воспоминания о будущем / Возвращение к звёздам / Chariots of the Gods. Er
Год выпуска: 1970
Жанр: Документальный
Продолжительность: 02:52:55
Режиссер: Харальд Рейнл / Harald Reinl
Описание:Самый известный из документальных фильмов о тайнах происхождения человечества и зарождения цивилизаций.
В основу картины легла книга Эриха фон Даникена "Колесницы богов", ставшая, как и фильм, бестселлером во всем мире. Вопросы, которые авторы
поднимают в своем фильме, волнуют человечество. Действительно ли бог был Астронавтом? Кто построил пирамиды? Кого изображают статуи острова
Пасхи? Кто и для кого нарисовал гигантские рисунки на плато в южной Америке? Все эти вопросы до сих пор не нашли ответов.
Фильм был снят в 1970 году и сразу стал настолько популярен во всем мире, что очереди в кинотеатры на документальный
фильм занимались с самого утра, а в бывшем СССР картина стала самым демонстрируемым научно-популярным фильмом десятилетия.
Музыка к фильму стала лейтмотивом к телевизионной программе академика Сергея Петровича Капицы "Очевидное - невероятное"
Список выпусков/серий:
1. Воспоминания о будущем / Erinnerungen an die Zukunft 1970.г
2. Возвращение к звёздам / Returning to the stars 1976.г
Качество: DVDRip
Формат: AVI
Видео кодек: XviD
Аудио кодек: MP3
Видео: XviD [640x480] -- 4:3, 1 200 Kbps [25.000 fps]
Аудио: MP3 [128 Kbps] -- 48.0 KHz, 2 channels

MediaInfo

Format : AVI
Format/Info : Audio Video Interleave
File size : 853 MiB
Duration : 1h 29mn
Overall bit rate : 1 337 Kbps
Writing application : VirtualDubMod 1.5.10.2 (build 2540/release)
Writing library : VirtualDubMod build 2540/release
Video
ID : 0
Format : MPEG-4 Visual
Format profile : Advanced [email protected]
Format settings, BVOP : 2
Format settings, QPel : No
Format settings, GMC : No warppoints
Format settings, Matrix : Default (H.263)
Codec ID : XVID
Codec ID/Hint : XviD
Duration : 1h 29mn
Bit rate : 1 200 Kbps
Width : 640 pixels
Height : 480 pixels
Display aspect ratio : 4:3
Frame rate : 25.000 fps
Color space : YUV
Chroma subsampling : 4:2:0
Bit depth : 8 bits
Scan type : Progressive
Compression mode : Lossy
Bits/(Pixel*Frame) : 0.156
Stream size : 765 MiB (90%)
Writing library : XviD 1.2.1 (UTC 2008-12-04)
Audio
ID : 1
Format : MPEG Audio
Format version : Version 1
Format profile : Layer 3
Mode : Joint stereo
Mode extension : MS Stereo
Codec ID : 55
Codec ID/Hint : MP3
Duration : 1h 29mn
Bit rate mode : Constant
Bit rate : 128 Kbps
Channel(s) : 2 channels
Sampling rate : 48.0 KHz
Compression mode : Lossy
Stream size : 81.6 MiB (10%)
Alignment : Aligned on interleaves
Interleave, duration : 40 ms (1.00 video frame)
Interleave, preload duration : 504 ms
Writing library : LAME3.97

Скриншоты

Создавать темы 19-Ноя-2014 00:07

[Профиль]  [ЛС] 

Baha Alimov

Стаж: 4 года 5 месяцев

Сообщений: 1

Раздайте пожалуйста

Создавать темы 22-Июн-2016 23:02

[Профиль]  [ЛС] 
Показать сообщения:    
Ответить на тему

Текущее время: 18-Дек 21:22

Часовой пояс: UTC + 5



Вы не можете начинать темы
Вы не можете отвечать на сообщения
Вы не можете редактировать свои сообщения
Вы не можете удалять свои сообщения
Вы не можете голосовать в опросах
Вы не можете прикреплять файлы к сообщениям
Вы не можете скачивать файлы