Прежде чем я усну / Before I Go to Sleep (Роуэн Жоффе) [2014 г., триллер, детектив, драма, .., WEBRip]

Ответить на тему
 

igor1968 ®

Стаж: 5 лет 8 месяцев

Сообщений: 366

Симпатии: 197

Прежде чем я усну / Before I Go to Sleep«Никому не доверяй» Год выпуска: 2014
Страна: Великобритания, Франция, Швеция
Жанр: триллер, детектив, драма, ..
Продолжительность: 01:17:03.458
Перевод: Профессиональный (полное дублирование)
Субтитры: Присутствуют не убираемые китайско- японские
Режиссер: Роуэн Жоффе
В главных ролях:
Николь Кидман
Колин Фёрт
Марк Стронг
Бен Кромптон
Энн-Мэри Дафф
Адам Леви
Гэбриел Стронг
Флинн МакАртур
Дин-Чарльз Чепмен
Ханна Блэмайерс
...
Роли дублировали:
Наталья Грачева
Игорь Тарадайкин
Василий Дахненко
Вадим Медведев
Рамиля Искандер
...
Описание: История о женщине, потерявшей память: каждое утро последние двадцать лет просто исчезают из ее воспоминаний, и каждое утро ей приходится по крупицам восстанавливать собственную жизнь.- -Качество: WEBRip
Формат: AVI
Видео кодек: XviD
Аудио кодек: AC3
Видео: 720x304 (2.37:1), 24 fps, XviD build 50 ~1944 kbps avg, 0.37 bit/pixel
Audio #1: 48 kHz, AC3 Dolby Digital, 2/0 (L,R) ch, ~192.00 kbps avg (rus)
Audio #2: 44.100 kHz, AC3 Dolby Digital, 2/0 (L,R) ch, ~384.00 kbps avg (eng)-

MediaInfo

General
Complete name : Prejde.chem.ya.usnu.2014.D.WEBRip.1400MB.avi
Format : AVI
Format/Info : Audio Video Interleave
File size : 1.36 GiB
Duration : 1h 17mn
Overall bit rate : 2 536 Kbps
Movie name : Prejde.chem.ya.usnu.2014.D.WEBRip.1400MB.ELEKTRI4KA
Director : TimeMashine
Writing application : VirtualDubMod 1.5.10.2 (build 2540/release)
Copyright : uniongang.tv
Comment : kolbas forever
Video
ID : 0
Format : MPEG-4 Visual
Format profile : Advanced [email protected]
Format settings, BVOP : Yes
Format settings, QPel : No
Format settings, GMC : No warppoints
Format settings, Matrix : Default (MPEG)
Codec ID : XVID
Codec ID/Hint : XviD
Duration : 1h 17mn
Bit rate : 1 946 Kbps
Width : 720 pixels
Height : 304 pixels
Display aspect ratio : 2.35:1
Frame rate : 24.000 fps
Color space : YUV
Chroma subsampling : 4:2:0
Bit depth : 8 bits
Scan type : Progressive
Compression mode : Lossy
Bits/(Pixel*Frame) : 0.370
Stream size : 1.05 GiB (77%)
Writing library : XviD 1.2.1 (UTC 2008-12-04)
Audio #1
ID : 1
Format : AC-3
Format/Info : Audio Coding 3
Mode extension : CM (complete main)
Format settings, Endianness : Big
Codec ID : 2000
Duration : 1h 17mn
Bit rate mode : Constant
Bit rate : 192 Kbps
Channel count : 2 channels
Channel positions : Front: L R
Sampling rate : 48.0 KHz
Bit depth : 16 bits
Compression mode : Lossy
Stream size : 106 MiB (8%)
Alignment : Split accross interleaves
Interleave, duration : 42 ms (1.00 video frame)
Interleave, preload duration : 500 ms
Audio #2
ID : 2
Format : AC-3
Format/Info : Audio Coding 3
Mode extension : CM (complete main)
Format settings, Endianness : Big
Codec ID : 2000
Duration : 1h 17mn
Bit rate mode : Constant
Bit rate : 384 Kbps
Channel count : 2 channels
Channel positions : Front: L R
Sampling rate : 44.1 KHz
Bit depth : 16 bits
Compression mode : Lossy
Stream size : 212 MiB (15%)
Alignment : Split accross interleaves
Interleave, duration : 42 ms (1.00 video frame)
Interleave, preload duration : 500 ms
-

Скриншоты





Создавать темы 19-Ноя-2014 00:53

[Профиль]  [ЛС] 

vadim-toxic

Стаж: 4 года

Сообщений: 7

вот только только наткнулся на ролик на мувере и вуаля - здесь фильм)
качаю

Создавать темы 19-Ноя-2014 12:45

[Профиль]  [ЛС] 

nico3500

Стаж: 4 года 10 месяцев

Сообщений: 99

Симпатии: 6

Я не понял меня одного что-ли раздражают китайские субтитры в течение всего фильма.

Создавать темы 14-Дек-2014 21:01

[Профиль]  [ЛС] 

avialex

Стаж: 7 лет

Сообщений: 9

стоит

Создавать темы 16-Дек-2014 00:35

[Профиль]  [ЛС] 
Показать сообщения:    
Ответить на тему

Текущее время: 23-Ноя 21:43

Часовой пояс: UTC + 5



Вы не можете начинать темы
Вы не можете отвечать на сообщения
Вы не можете редактировать свои сообщения
Вы не можете удалять свои сообщения
Вы не можете голосовать в опросах
Вы не можете прикреплять файлы к сообщениям
Вы не можете скачивать файлы