AC/DC - The Apollo Glasgow Scotland (1978) [2009 г., Hard Rock, DVDRip]

Ответить на тему
 

Massageth ®

Стаж: 6 лет 9 месяцев

Сообщений: 116

Симпатии: 15

AC/DCThe Apollo Glasgow Scotland (1978) Год выпуска: 2009
Страна: Австралия
Жанр: Hard Rock
Лейблы: Albert, EMI, Columbia, Epic, Atlantic, Atco, Elektra, East West.
Продолжительность: 00:54:54
В ролях: Bon Scott, Angus Young, Malcolm Young, Cliff Williams, Phil Rudd.

Описание: Очередной концерт группы AC/DC на сцене Театра Аполло, г. Глазго, Шотландия, 30 апреля 1978 года. (Apr 30 1978, Apollo Theatre, Glasgow, Scotland).
Качество: DVDRip
Формат: AVI
Видео кодек: Другой MPEG4
Аудио кодек: MP3
Видео: AVI, MPEG-4 Visual, Advanced [email protected], 1491 Кбит/сек, 720x576, 5:4, 25,000.
Аудио: MP3, MPEG Audio Version 1 Layer 3 Joint stereo, Bit rate: 320 Kbps, 2 channels, 48.0 KHz.

Треклист

01 - Riff Raff
02 - Rock'N'Roll Damnation
03 - Dog Eat Dog
04 - Bad Boy Boogie
05 - Let There Be Rock
06 - Rocker
07 - Lime Wire
08 - Problem Child
09 - Sin City
10 - Whole Lotta Rosie

Состав группы

- Bon Scott / vocals
- Angus Young / lead guitar
- Malcolm Young / rhythm guitar
- Cliff Williams / bass
- Phil Rudd / drums
Текущий состав:
Ангус Янг
Фил Радд
Клифф Уильямс
Брайан Джонсон
Стиви Янг
Бывшие участники:
Малколм Янг
Дейв Эванс
Ларри Ван Кридт
Колин Берджесс
Нил Смит
Рон Карпентер
Рассел Коулман
Ноэл Тейлор
Питер Клак
Роб Бейли
Бон Скотт
Марк Эванс
Саймон Райт
Крис Слейд

Media Info

Общее
Полное имя : ACDC - The Apollo Glasgow Scotland (1978).avi
Формат : AVI
Формат/Информация : Audio Video Interleave
Размер файла : 718 Мбайт
Продолжительность : 54 м.
Общий поток : 1828 Кбит/сек
Видео
Идентификатор : 0
Формат : MPEG-4 Visual
Профиль формата : Advanced [email protected]
Параметр BVOP формата : 1
Параметр QPel формата : Да
Параметр GMC формата : 3 точки перехода
Параметр матрицы формата : Default (H.263)
Режим смешивания : Сжатый битовый поток
Идентификатор кодека : MP4V
Идентификатор кодека/Информация : Apple QuickTime MPEG-4 native
Продолжительность : 54 м.
Битрейт : 1491 Кбит/сек
Ширина : 720 пикселей
Высота : 576 пикселей
Соотношение сторон : 5:4
Частота кадров : 25,000 кадров/сек
Стандарт вещания : PAL
Цветовое пространство : YUV
Субдискретизация насыщенности : 4:2:0
Битовая глубина : 8 бит
Тип развёртки : Прогрессивная
Метод сжатия : С потерями
Бит/(Пиксели*Кадры) : 0.144
Размер потока : 585 Мбайт (82%)
Библиотека кодирования : DivX 1393
Аудио
Идентификатор : 1
Формат : MPEG Audio
Версия формата : Version 1
Профиль формата : Layer 3
Режим : Joint stereo
Идентификатор кодека : 55
Идентификатор кодека/Подсказка : MP3
Продолжительность : 54 м.
Вид битрейта : Постоянный
Битрейт : 320 Кбит/сек
Каналы : 2 канала
Частота : 48,0 КГц
Метод сжатия : С потерями
Размер потока : 126 Мбайт (18%)
Выравнивание : Соединение по промежуткам
Продолжительность промежутка : 24 мс. (0,60 видеокадр)
Время предзагрузки промежутка : 1008 мс.

Скриншоты

Создавать темы 19-Ноя-2014 19:44

[Профиль]  [ЛС] 
Показать сообщения:    
Ответить на тему

Текущее время: 24-Авг 10:01

Часовой пояс: UTC + 5



Вы не можете начинать темы
Вы не можете отвечать на сообщения
Вы не можете редактировать свои сообщения
Вы не можете удалять свои сообщения
Вы не можете голосовать в опросах
Вы не можете прикреплять файлы к сообщениям
Вы не можете скачивать файлы