Семейка монстров / The Boxtroll (Грэхэм Эннэйбл, Энтони Стакки) 2014 г., мультфильм, фэнтези, комедия, приключения, семейный, Web-DLRip [Лицензия]

Ответить на тему
 

Страх ®

Стаж: 4 года 1 месяц

Сообщений: 1131

Симпатии: 448

Семейка монстров / The Boxtroll- -Год выпуска: 2014
Страна: США
Жанр: мультфильм, фэнтези, комедия, приключения, семейный
Продолжительность: 01:36:10
Перевод: Профессиональный (полное дублирование) Лицензия-Режиссер: Грэхэм Эннэйбл, Энтони Стакки-В ролях: Кирилл Туранский, Даниил Эльдаров, Александр Гаврилин, Владимир Антипов-Описание: Ему не повезло родиться в роскошном замке. Вместе с семейкой забавных монстров юноша поселился прямо под мостовой. Изысканные костюмы ему заменила обычная коробка. Зато каждую ночь он мог разгуливать по темным улицам в поисках новых приключений. Но однажды он встретил очаровательную девчушку из высшего общества — и мир вокруг изменился навсегд- -Качество: Web-DLRip
Формат: avi
Видео кодек: Xvid
Аудио кодек: AC3
Видео: 720x400 23.976fps 1641kbps
Аудио: Dolby AC3 48000Hz 6ch 384kbps

Медиа Инфо

General
Complete name : D:\Tracker\Movie Files\The Boxtroll_2014_D_WEB-DLRip.avi
Format : AVI
Format/Info : Audio Video Interleave
File size : 1.37 GiB
Duration : 1h 36mn
Overall bit rate : 2 035 Kbps
Writing application : VirtualDubMod 1.5.10.3 | www.virtualdub-fr.org || (build 2550/release)
Writing library : VirtualDubMod build 2550/release
Video
ID : 0
Format : MPEG-4 Visual
Format profile : Advanced [email protected]
Format settings, BVOP : 2
Format settings, QPel : No
Format settings, GMC : No warppoints
Format settings, Matrix : Default (MPEG)
Codec ID : XVID
Codec ID/Hint : XviD
Duration : 1h 36mn
Bit rate : 1 642 Kbps
Width : 720 pixels
Height : 400 pixels
Display aspect ratio : 16:9
Frame rate : 23.976 fps
Color space : YUV
Chroma subsampling : 4:2:0
Bit depth : 8 bits
Scan type : Progressive
Compression mode : Lossy
Bits/(Pixel*Frame) : 0.238
Stream size : 1.10 GiB (81%)
Writing library : XviD 1.2.1 (UTC 2008-12-04)
Audio
ID : 1
Format : AC-3
Format/Info : Audio Coding 3
Mode extension : CM (complete main)
Format settings, Endianness : Big
Codec ID : 2000
Duration : 1h 36mn
Bit rate mode : Constant
Bit rate : 384 Kbps
Channel(s) : 6 channels
Channel positions : Front: L C R, Side: L R, LFE
Sampling rate : 48.0 KHz
Bit depth : 16 bits
Compression mode : Lossy
Stream size : 264 MiB (19%)
Alignment : Split accross interleaves
Interleave, duration : 42 ms (1.00 video frame)
Interleave, preload duration : 500 ms
-

Скриншоты

WOW скриншоты

Создавать темы 20-Ноя-2014 17:13

[Профиль]  [ЛС] 

Slapper

Стаж: 4 года

Сообщений: 2193

Симпатии: 213

Страх, ошибся разделом, тебе сюда -> https://tas-ix.net/viewforum.php?f=11

Создавать темы 20-Ноя-2014 17:23

[Профиль]  [ЛС] 

Страх ®

Стаж: 4 года 1 месяц

Сообщений: 1131

Симпатии: 448

Slapper, ой) да, что то привык я фильмы да фильмы. ну перенесите) ы

Создавать темы 20-Ноя-2014 17:36

[Профиль]  [ЛС] 

Топик был перенесен из форума Фильмы за 2014 в форум Мультфильмы
Grock

Создавать темы 20-Ноя-2014 17:46

 

Страх ®

Стаж: 4 года 1 месяц

Сообщений: 1131

Симпатии: 448

Нормальнинький мультик, с детворой можно посмотреть.

Создавать темы 20-Ноя-2014 17:48

[Профиль]  [ЛС] 

Страх ®

Стаж: 4 года 1 месяц

Сообщений: 1131

Симпатии: 448

вышла HD 720 но толку нету релизить, не оч отличается от данного файла. и качеством

Создавать темы 23-Ноя-2014 13:03

[Профиль]  [ЛС] 

Mehti

Стаж: 5 лет 6 месяцев

Сообщений: 140

Симпатии: 17

спасибо за раздачу

Создавать темы 29-Ноя-2014 10:44

[Профиль]  [ЛС] 

fidibus

Стаж: 4 года 5 месяцев

Сообщений: 15

Симпатии: 2

Чудесный мультик! Спасибо))))

Создавать темы 01-Янв-2015 03:46

[Профиль]  [ЛС] 
Показать сообщения:    
Ответить на тему

Текущее время: 18-Ноя 21:01

Часовой пояс: UTC + 5



Вы не можете начинать темы
Вы не можете отвечать на сообщения
Вы не можете редактировать свои сообщения
Вы не можете удалять свои сообщения
Вы не можете голосовать в опросах
Вы не можете прикреплять файлы к сообщениям
Вы не можете скачивать файлы