Дикий (Сезон 2 (Полностью), Серии: 1-32 из 32) (Вадим Шмелев, Артём Мазунов) [2011г., Криминал, Детектив, SATRip]

Ответить на тему
 

Mercuriy ®

Стаж: 5 лет 10 месяцев

Сообщений: 418

Симпатии: 100

--Дикий-2-(Сезон 2 (Полностью), Серии: с 1-й по 32-ю из 32)-«Один против всех»--- Год выпуска: 2011
Страна: Россия, Russia Компания [Анкор] по заказу Телеканала НТВ
Жанр: Криминал, Детектив
Сезон: 2
Серии: 1-32 из 32
Продолжительность: ~ 00:45:00
Перевод: Не требуется--Режиссеры: Вадим Шмелев, Артём Мазунов--В ролях: Игорь Лифанов, Артём Мазунов, Мария Баева, Владимир Стержаков, Наталья Громушкина, Екатерина Семёнова, Павел Сметанкин, Дмитрий Ломовский, Михаил Евланов, Юлия Вознесенская, Сергей Карленков, Руслан Ягудин, Кирилл Иванченко, Александр Василевский, Арам Григорян, Денис Янковский, Рената Пиотровски, Игорь Фурманюк, Борис Хвошнянский, Александр Макогон, Михаил Дорожкин, Константин Кожевников, Роман Индык, Владимир Тишко, Геннадий Христенко, Василий Белокопытов, Анатолий Гущин, Наталья Тетенова, Галина Анисимова (II), Петр Томашевский, Наталья Унгард, Татьяна Пискарёва, Андрей Межулис, Георгий Мушеев, Александр Кулямин, Всеволод Быков, Дмитрий Буренков, Виктор Рошка, Георгий Тесля-Герасимов, Сергей Чудаков, Илья Соколовский, Ирина Ефремова (II), Дмитрий Павленко, Анастасия Шунина-Махонина, Петр Ступин, Александр Смирнов (IV), Олег Чудницов, Алексей Шмаринов, Леонид Тимцуник, Сергей Холмогоров, Михаил Богдасаров, Александр Самойлов, Михаил Станкевич, Геннадий Егоров (II), Андрей Снежко, Игорь Скурихин, Михаил Слесарев, Алексей Рыжков, Александр Ильин (III), Игорь Мещерин, Павел Сухов, Александр Числов, Полина Лунегова, Анна Пухова, Елена Дубровская, Иван Гришанов, Иван Николаев, Александр Туманов, Антон Батырев, Ульяна Похлебаева--Описание: Поклонники одного из самых брутальных актеров современного российского кино Игоря Лифанова, ликуйте: капитан Диченко в его исполнении возвращается на НТВ! Он все такой же Дикий, но симпатичный!
В новом сезоне оперуполномоченный Александр Диченко вместе со своим напарником Кочкиным продолжает бороться с преступностью в Вышнегорске и его окрестностях. Дочь Дикого — Дуся — уже в выпускном классе. Ухажеров у нее значительно прибавилось и проблем с ними у ее строгого отца, соответственно, тоже. Повлиять на вкусы дочери Александр не в состоянии, поэтому приходится мириться с новыми увлечениями девушки.
Криминалист Звонарева и классный руководитель Дуси — Ольга Сергеевна — продолжают с переменным успехом бороться за сердце Дикого. Правда, борьба теперь осложняется тем, что в нее включается третий «игрок» — местная молоденькая журналистка Людочка, которой Дикий когда-то спас жизнь. Благодарная девушка влюбилась в своего героя, чем превратила любовный треугольник Дикий-Звонарева-Ольга в четырехугольник.
Тем временем начальник Диченко и Кочкина — подполковник Зайцев — готовится к тихому уходу на пенсию и поэтому становится жутким «перестраховщиком», что существенно усложняет проведение «диких» операций. А ведь с горизонта не исчез криминальный авторитет по кличке Чингиз, с людьми которого Дикий сражался в первой части сериала. Можно с уверенностью сказать, что в новом сезоне противостояние Дикий-Чингиз достигнет своего апогея.
Кроме этого, Диченко и Кочкину предстоит выйти на след местного Жека-Потрошителя, разоблачить браконьеров, случайно убивших егеря, вывести на чистую воду заезжую банду таксистов-грабителей, остановить доморощенного Робин Гуда, который грабит дома зажиточных граждан, и, наконец, спасти Дусю, похищенную из загородного пансионата неизвестными…
Как бравые напарники будут справляться со сложными, а порой и смертельно опасными задачами, смотрите в новом сезоне сериале — «Дикий-2».
-- -- --Качество: SATRip
Формат: AVI
Видео кодек: XVID
Аудио кодек: MP3
Видео: 704x352 (16.9), 25 fps, XVID, ~1500 kbps avg, 0.22 bit/pixel
Аудио: 48 kHz, MP3 Dolby Digital, 2/0 (L,R) ch, ~128.00 kbps avg
--

MI:

General
Complete name : C:\Торрентовская Свалка\Дикий AVC\Дикий 2 SATRip_AVI\Дикий 2 01_серия_SATRip.avi
Format : AVI
Format/Info : Audio Video Interleave
File size : 538 MiB
Duration : 46mn 2s
Overall bit rate : 1 635 Kbps
Writing application : VirtualDubMod 1.5.10.2 (build 2540/release)
Writing library : VirtualDubMod build 2540/release
Video
ID : 0
Format : MPEG-4 Visual
Format profile : Advanced [email protected]
Format settings, BVOP : 2
Format settings, QPel : No
Format settings, GMC : No warppoints
Format settings, Matrix : Default (H.263)
Muxing mode : Packed bitstream
Codec ID : XVID
Codec ID/Hint : XviD
Duration : 46mn 2s
Bit rate : 1 497 Kbps
Width : 704 pixels
Height : 352 pixels
Display aspect ratio : 2.000
Frame rate : 25.000 fps
Color space : YUV
Chroma subsampling : 4:2:0
Bit depth : 8 bits
Scan type : Progressive
Compression mode : Lossy
Bits/(Pixel*Frame) : 0.242
Stream size : 493 MiB (92%)
Writing library : XviD 1.2.1 (UTC 2008-12-04)
Audio
ID : 1
Format : MPEG Audio
Format version : Version 1
Format profile : Layer 3
Mode : Joint stereo
Mode extension : MS Stereo
Codec ID : 55
Codec ID/Hint : MP3
Duration : 46mn 2s
Bit rate mode : Constant
Bit rate : 128 Kbps
Channel(s) : 2 channels
Sampling rate : 48.0 KHz
Compression mode : Lossy
Stream size : 42.2 MiB (8%)
Alignment : Aligned on interleaves
Interleave, duration : 40 ms (1.00 video frame)
Interleave, preload duration : 504 ms
--

Создавать темы 20-Ноя-2014 19:30

[Профиль]  [ЛС] 

фазилов

Стаж: 3 года 8 месяцев

Сообщений: 310

Симпатии: 344

Mercuriy, СПАСИБО.
Только 3 сезон нет раздачи
. tp

Создавать темы 01-Дек-2014 12:17

[Профиль]  [ЛС] 

фазилов

Стаж: 3 года 8 месяцев

Сообщений: 310

Симпатии: 344

ta Сидеры! Дайте скорости чуть-чуть. Больше 2-х месяцев и половины не скачал ta

Создавать темы 06-Фев-2015 03:01

[Профиль]  [ЛС] 

натали

Стаж: 5 лет 7 месяцев

Сообщений: 26

Симпатии: 3

что за скорость,а? 0,1-0,2 Кб/s

Создавать темы 27-Фев-2015 05:37

[Профиль]  [ЛС] 

фазилов

Стаж: 3 года 8 месяцев

Сообщений: 310

Симпатии: 344

Релизер ушёл и кранты. 4% никак не докачать ta

Создавать темы 27-Фев-2015 05:50

[Профиль]  [ЛС] 
Показать сообщения:    
Ответить на тему

Текущее время: 25-Сен 14:42

Часовой пояс: UTC + 5



Вы не можете начинать темы
Вы не можете отвечать на сообщения
Вы не можете редактировать свои сообщения
Вы не можете удалять свои сообщения
Вы не можете голосовать в опросах
Вы не можете прикреплять файлы к сообщениям
Вы не можете скачивать файлы