Дикий (Сезон 4 (Полностью), Серии: 1-32 из 32) (Вадим Шмелев, Артём Мазунов) [2014г., Криминал, Детектив, SATRip]

Ответить на тему
 

Mercuriy ®

Стаж: 6 лет 1 месяц

Сообщений: 418

Симпатии: 100

--Дикий-4-(Сезон 4 (Полностью), Серии: с 1-й по 32-ю из 32)-«Один против всех»--- Год выпуска: 2014
Страна: Россия, Russia Компания [Анкор] по заказу Телеканала НТВ
Жанр: Криминал, Детектив
Сезон: 2
Серии: 1-32 из 32
Продолжительность: ~ 00:45:00
Перевод: Не требуется--Режиссеры: Вадим Шмелев, Артём Мазунов--В ролях: Игорь Лифанов, Артем Мазунов, Мария Баева, Галина Анисимова, Станислав Бондаренко, Сергей Баталов, Константин Адаев, Юлия Галкина, Александр Пашков, Александра Прокофьева--Описание: На НТВ — новые серии одного из самых популярных и захватывающих сериалов — «Дикий»! Что ждет поклонников отчаянного и неудержимого героя Игоря Лифанова – оперуполномоченного Александра Диченко? В конце прошлого сезона погибла любимая девушка Таня, с которой у Дикого так все замечательно складывалось. Он — в отчаянии и депрессии, ведь кошмар прошлого — гибель жены — повторился. Дикий уверен: причина всех бед кроется в нем самом. Он как «черная метка», приносящая всем вокруг несчастья… Не удается избежать и проблем на работе: Диченко никак не может найти внутреннюю мотивацию стать прежним. Хандра продолжается до тех пор, пока ему не поступает неожиданное и чрезвычайно опасное предложение из Вышнегорска — войти в специально отобранную команду под руководством полковника Зайцева. Дикий срывается с места и едет в Вышнегорск, а следом за ним, естественно, устремляется и его верный друг и напарник Кочкин. Их новая команда должна стать тем самым «кулаком», который нанесет сокрушительный удар по вышнегорской мафии…
-- -- --Качество: SATRip
Формат: AVI
Видео кодек: XVID
Аудио кодек: MP3
Видео: 704x448 (16.9), 25 fps, XVID, ~1800 kbps avg, 0.22 bit/pixel
Аудио: 48 kHz, MP3 Dolby Digital, 2/0 (L,R) ch, ~128.00 kbps avg
--

MI:

General
Complete name : C:\Торрентовская Свалка\Дикий AVC\Дикий 4 SATRip_AVI\Dikij-4.01.2014.SATRip.avi
Format : AVI
Format/Info : Audio Video Interleave
File size : 611 MiB
Duration : 44mn 10s
Overall bit rate : 1 932 Kbps
Writing application : VirtualDubMod 1.5.10.2 (build 2540/release)
Writing library : VirtualDub build 32507/release
Video
ID : 0
Format : MPEG-4 Visual
Format profile : Advanced [email protected]
Format settings, BVOP : 2
Format settings, QPel : No
Format settings, GMC : No warppoints
Format settings, Matrix : Default (MPEG)
Codec ID : XVID
Codec ID/Hint : XviD
Duration : 44mn 10s
Bit rate : 1 794 Kbps
Width : 720 pixels
Height : 448 pixels
Display aspect ratio : 1.607
Frame rate : 25.000 fps
Color space : YUV
Chroma subsampling : 4:2:0
Bit depth : 8 bits
Scan type : Progressive
Compression mode : Lossy
Bits/(Pixel*Frame) : 0.223
Stream size : 567 MiB (93%)
Writing library : XviD 64
Audio
ID : 1
Format : MPEG Audio
Format version : Version 1
Format profile : Layer 3
Mode : Joint stereo
Codec ID : 55
Codec ID/Hint : MP3
Duration : 44mn 10s
Bit rate mode : Constant
Bit rate : 128 Kbps
Channel(s) : 2 channels
Sampling rate : 48.0 KHz
Compression mode : Lossy
Stream size : 40.4 MiB (7%)
Alignment : Aligned on interleaves
Interleave, duration : 40 ms (1.00 video frame)
Interleave, preload duration : 504 ms
--

Создавать темы 20-Ноя-2014 19:38

[Профиль]  [ЛС] 

Mercuriy ®

Стаж: 6 лет 1 месяц

Сообщений: 418

Симпатии: 100

Так как за 5 дней желающих реально завладеть данным контепнтом не возникло раздача прекращается и далее возобновляться не будет, конечноже если какойнибудь желающий волонтер не найдет идентичный первоисточник и скачав не встанет на раздачу!!!

Создавать темы 25-Ноя-2014 20:58

[Профиль]  [ЛС] 

Uzel

Стаж: 6 лет 7 месяцев

Сообщений: 923

Симпатии: 53

Mercuriy, Ёмаё вы что вообще говорите!!! Дикий это шедевр!!! Я буду качать! Пожалуйста раздавайте сударь,благодарен вам за такой сериал!!! Скачаю и 3 и 4 сезон.Заранее спасибо!

Создавать темы 26-Ноя-2014 00:56

[Профиль]  [ЛС] 

фазилов

Стаж: 3 года 10 месяцев

Сообщений: 310

Симпатии: 344

Mercuriy, СПАСИБО!!! mb

Создавать темы 07-Дек-2014 18:11

[Профиль]  [ЛС] 

Mercuriy ®

Стаж: 6 лет 1 месяц

Сообщений: 418

Симпатии: 100

фазилов, Незашто, на здоровье)

Создавать темы 08-Дек-2014 01:54

[Профиль]  [ЛС] 
Показать сообщения:    
Ответить на тему

Текущее время: 15-Дек 05:29

Часовой пояс: UTC + 5



Вы не можете начинать темы
Вы не можете отвечать на сообщения
Вы не можете редактировать свои сообщения
Вы не можете удалять свои сообщения
Вы не можете голосовать в опросах
Вы не можете прикреплять файлы к сообщениям
Вы не можете скачивать файлы