Nazareth - Naza Live (Live at the Gateway Theatre Edinburgh 17.12.1980) [2004 г., Hard Rock, DVDRip]

Ответить на тему
 

Massageth ®

Стаж: 6 лет 9 месяцев

Сообщений: 116

Симпатии: 15

NazarethNaza Live (Live at the Gateway Theatre Edinburgh 17.12.1980) Год выпуска: 2004
Страна: Великобритания
Жанр: Hard Rock
Лейбп: C - Scottish Television Ltd (1981)
Produser: Haldane Duncan
Продолжительность: 00:26:01

Описание: Редкий DVD, выпущенный в 2004 году фирмой River Records. Концерт в Gateway Theatre (Эдинбург, Шотландия), снятый для шотландского ТВ 17 декабря 1980 года. Классический состав: Дэн Маккафферти, Мэнни Чарльтон, Пит Эгнью, Дэррилл Свит и двое новобранцев: Билли Рэнкин и Джон Локе. К сожалению, всего лишь 26 минут чудодейства и волшебства!
Качество: DVDRip
Формат: AVI
Видео кодек: Другой MPEG4
Аудио кодек: MP3
Видео: AVI, MPEG-4 Visual, Advanced [email protected], 1485 Кбит/сек, 720x576, 5:4, 25,000.
Аудио: MP3, MPEG Audio Version 1 Layer 3 Joint stereo, Bit rate: 320 Kbps, 2 channels, 48.0 KHz.

Треклист

1. Razamanaz
2. I Want To Do Everything For You
3. Big Boy
4. Hearts Grown Cold
5. Dressed To Kill

Media Info

Общее
Полное имя : Nazareth - Naza Live (Live at the Gateway Theatre Edinburgh 17.12.1980).avi
Формат : AVI
Формат/Информация : Audio Video Interleave
Размер файла : 339 Мбайт
Продолжительность : 26 м.
Общий поток : 1823 Кбит/сек
Видео
Идентификатор : 0
Формат : MPEG-4 Visual
Профиль формата : Advanced [email protected]
Параметр BVOP формата : 1
Параметр QPel формата : Да
Параметр GMC формата : 3 точки перехода
Параметр матрицы формата : Default (H.263)
Режим смешивания : Сжатый битовый поток
Идентификатор кодека : MP4V
Идентификатор кодека/Информация : Apple QuickTime MPEG-4 native
Продолжительность : 26 м.
Битрейт : 1485 Кбит/сек
Ширина : 720 пикселей
Высота : 576 пикселей
Соотношение сторон : 5:4
Частота кадров : 25,000 кадров/сек
Стандарт вещания : PAL
Цветовое пространство : YUV
Субдискретизация насыщенности : 4:2:0
Битовая глубина : 8 бит
Тип развёртки : Прогрессивная
Метод сжатия : С потерями
Бит/(Пиксели*Кадры) : 0.143
Размер потока : 276 Мбайт (81%)
Библиотека кодирования : DivX 1393
Аудио
Идентификатор : 1
Формат : MPEG Audio
Версия формата : Version 1
Профиль формата : Layer 3
Режим : Joint stereo
Идентификатор кодека : 55
Идентификатор кодека/Подсказка : MP3
Продолжительность : 26 м.
Вид битрейта : Постоянный
Битрейт : 320 Кбит/сек
Каналы : 2 канала
Частота : 48,0 КГц
Метод сжатия : С потерями
Размер потока : 59,5 Мбайт (18%)
Выравнивание : Соединение по промежуткам
Продолжительность промежутка : 24 мс. (0,60 видеокадр)
Время предзагрузки промежутка : 1008 мс.

Скриншоты

Создавать темы 22-Ноя-2014 00:02

[Профиль]  [ЛС] 
Показать сообщения:    
Ответить на тему

Текущее время: 21-Авг 15:21

Часовой пояс: UTC + 5



Вы не можете начинать темы
Вы не можете отвечать на сообщения
Вы не можете редактировать свои сообщения
Вы не можете удалять свои сообщения
Вы не можете голосовать в опросах
Вы не можете прикреплять файлы к сообщениям
Вы не можете скачивать файлы