Волчица и Черный Принц / Ookami Shoujo to Kuro Ouji [TV] (Касай Кэнъити) [12 из 12] [RUS] [Jackie-O и Marie Bibika] [2014 г., комедия, романтика, школа, HDTVRip] [720p]

Ответить на тему
 

Coolboy_17 ®

Стаж: 4 года 6 месяцев

Сообщений: 76

Симпатии: 14

Волчица и Черный Принц
Ookami Shoujo to Kuro Ouji
- Год выпуска: 2014
Страна: Япония
Жанр: комедия, романтика, школа
Продолжительность: 12 эп. по 25 мин-Озвучка :Jackie-O и Marie Bibika-Режиссер: Касай Кэнъити
Снято по манге : Ookami Shoujo to Kuro Ouji
Автор оригинала : Хатта Аюко
Студия : -Описание: Эрика Шинохара в свои 16 лет не обзавелась парнем. Но всем рассказывает о своих романтических отношениях. Подругам она показала фото одного красавчика, Сата Кая. На деле он просто ее одноклассник, да и к тому же с садистскими наклонностями. Эрика пытается сделать Сату своим поддельным парнем и просит ей помочь. А парень используя секрет девушки, относится в основном как к собачке. Разве что поводка не хватает.
World Art-Качество: HDTVRip
Формат:FLV
Видео: H264; 1280x720; 23.976 fps; ~1800 kbps
Аудио: RUS - AAC-LC; 44.0 kHz; 2.0 ch; ~128 kbps -в составе контейнера-[Jackie-O & Marie Bibika]

Подробные тех. данные

General
Complete name                  : D:\Аnime\Anime\Ookami Shoujo to Kuro Ouji\Ookami Shoujo to Kuro Ouji [05] [Jackie-O и Marie Bibika].FLV
Format                         : MPEG-4
Format profile                 : Base Media
Codec ID                       : isom
File size                      : 366 MiB
Duration                       : 24mn 2s
Overall bit rate mode          : Variable
Overall bit rate               : 2 129 Kbps
Encoded date                   : UTC 2014-11-01 23:24:36
Tagged date                    : UTC 2014-11-01 23:24:36
Video
ID                             : 1
Format                         : AVC
Format/Info                    : Advanced Video Codec
Format profile                 : [email protected]
Format settings, CABAC         : Yes
Format settings, ReFrames      : 4 frames
Codec ID                       : avc1
Codec ID/Info                  : Advanced Video Coding
Duration                       : 24mn 2s
Bit rate                       : 1 973 Kbps
Width                          : 1 280 pixels
Height                         : 720 pixels
Display aspect ratio           : 16:9
Frame rate mode                : Constant
Frame rate                     : 23.976 fps
Color space                    : YUV
Chroma subsampling             : 4:2:0
Bit depth                      : 8 bits
Scan type                      : Progressive
Bits/(Pixel*Frame)             : 0.089
Stream size                    : 339 MiB (93%)
Tagged date                    : UTC 2014-11-01 23:24:55
Audio
ID                             : 2
Format                         : AAC
Format/Info                    : Advanced Audio Codec
Format profile                 : LC
Codec ID                       : 40
Duration                       : 24mn 2s
Bit rate mode                  : Variable
Bit rate                       : 152 Kbps
Maximum bit rate               : 192 Kbps
Channel(s)                     : 2 channels
Channel positions              : Front: L R
Sampling rate                  : 44.1 KHz
Compression mode               : Lossy
Stream size                    : 26.1 MiB (7%)
Tagged date                    : UTC 2014-11-01 23:24:55

Скриншоты







Последний раз редактировалось: Coolboy_17 (2015-01-02 17:09), всего редактировалось 14 раз(а)

Создавать темы 22-Ноя-2014 21:32

[Профиль]  [ЛС] 

Coolboy_17 ®

Стаж: 4 года 6 месяцев

Сообщений: 76

Симпатии: 14

Раздача будет только по вечерам ty
P.S. Остальные серии будут в декабре


Последний раз редактировалось: Coolboy_17 (2014-11-24 08:05), всего редактировалось 1 раз

Создавать темы 22-Ноя-2014 21:56

[Профиль]  [ЛС] 

murodjon

Стаж: 6 лет 10 месяцев

Сообщений: 163

Симпатии: 10

Спасибо, круто!

Создавать темы 23-Ноя-2014 18:08

[Профиль]  [ЛС] 

Coolboy_17 ®

Стаж: 4 года 6 месяцев

Сообщений: 76

Симпатии: 14

Обновлено до 8 серии

Создавать темы 04-Дек-2014 04:55

[Профиль]  [ЛС] 

Coolboy_17 ®

Стаж: 4 года 6 месяцев

Сообщений: 76

Симпатии: 14

9 серия

Создавать темы 04-Дек-2014 12:35

[Профиль]  [ЛС] 

Coolboy_17 ®

Стаж: 4 года 6 месяцев

Сообщений: 76

Симпатии: 14

10 серия

Создавать темы 13-Дек-2014 00:13

[Профиль]  [ЛС] 

Coolboy_17 ®

Стаж: 4 года 6 месяцев

Сообщений: 76

Симпатии: 14

11 серия

Создавать темы 16-Дек-2014 23:59

[Профиль]  [ЛС] 

Coolboy_17 ®

Стаж: 4 года 6 месяцев

Сообщений: 76

Симпатии: 14


12 серия
Релиз завершён!!!

Создавать темы 02-Янв-2015 17:03

[Профиль]  [ЛС] 

Топик был перенесен из форума Аниме онгоинги в форум HD, HDTVRip
SNIL

Создавать темы 02-Янв-2015 19:06

 

TimaK

Стаж: 6 лет 7 месяцев

Сообщений: 129

Симпатии: 23

Классно спс

Создавать темы 25-Май-2015 20:28

[Профиль]  [ЛС] 
Показать сообщения:    
Ответить на тему

Текущее время: 17-Дек 14:41

Часовой пояс: UTC + 5



Вы не можете начинать темы
Вы не можете отвечать на сообщения
Вы не можете редактировать свои сообщения
Вы не можете удалять свои сообщения
Вы не можете голосовать в опросах
Вы не можете прикреплять файлы к сообщениям
Вы не можете скачивать файлы