Настраиваем Сами: Торрент-клиент,Оптимальное соединение,создание Торрент-файлов / 2014 / Rus ( Видео-Инструкция)

Страницы :  1, 2  След.

Ответить на тему
 

New-Release ®

Стаж: 5 лет 5 месяцев

Сообщений: 1713

Симпатии: 345

Настраиваем Сами Торрент-клиент,Оптимальное соединение,создание Торрент-файлов / 2014 / Rus ( Видео-Инструкция)
Год выпуска: 2014
Разработчик-Режисер: New-Release
Продолжительность: 9мин. 34с.
Описание: Записал небольшую Видео инструкцию,по настройке торрент-клиентов (uTorrent & BitTorrent) а так же оптимальное соеденение и в добавок создание торрент-файлов (файл и папка).
ВАЖНО: При повторном подключение к интернету,меняем IP-адрес в настройках Торрент-клиента.
Если IP-адрес Статический то вписываем его в торрент-клиент,без дальнейших изменений.

Media-Info

Format : AVI
Format/Info : Audio Video Interleave
File size : 93.4 MiB
Duration : 9mn 34s
Overall bit rate : 1 364 Kbps
Writing application : BandiAviMuxer 1.0
Video
ID : 0
Format : MPEG-4 Visual
Format profile : [email protected]
Format settings, BVOP : Yes
Format settings, QPel : No
Format settings, GMC : No warppoints
Format settings, Matrix : Default (H.263)
Codec ID : XVID
Codec ID/Hint : XviD
Duration : 9mn 34s
Bit rate : 1 158 Kbps
Width : 1 432 pixels
Height : 872 pixels
Display aspect ratio : 16:10
Frame rate : 30.000 fps
Color space : YUV
Chroma subsampling : 4:2:0
Bit depth : 8 bits
Scan type : Progressive
Compression mode : Lossy
Bits/(Pixel*Frame) : 0.031
Stream size : 79.3 MiB (85%)
Audio
ID : 1
Format : MPEG Audio
Format version : Version 1
Format profile : Layer 2
Codec ID : 50
Duration : 9mn 34s
Bit rate mode : Constant
Bit rate : 192 Kbps
Channel(s) : 2 channels
Sampling rate : 48.0 KHz
Compression mode : Lossy
Stream size : 13.2 MiB (14%)
Alignment : Aligned on interleaves
Interleave, duration : 24 ms (0.72 video frame)

Скриншоты



Создавать темы 23-Ноя-2014 00:12

[Профиль]  [ЛС] 

New-Release ®

Стаж: 5 лет 5 месяцев

Сообщений: 1713

Симпатии: 345

При возникших вопросах,Обращаться в ЛС.

Создавать темы 23-Ноя-2014 00:12

[Профиль]  [ЛС] 

Rico87

Стаж: 6 лет 8 месяцев

Сообщений: 279

Симпатии: 17

shkaff, Большое спасибо за труд.

Создавать темы 23-Ноя-2014 07:25

[Профиль]  [ЛС] 

фазилов

Стаж: 3 года 9 месяцев

Сообщений: 310

Симпатии: 344

shkaff, Большое спасибо. Для настройки тередо TAS-IX для хрюши нет видео?Понимаю,что есть целая ветка на 89 страниц. Но так и не идёт для XP. bu

Создавать темы 23-Ноя-2014 07:34

[Профиль]  [ЛС] 

New-Release ®

Стаж: 5 лет 5 месяцев

Сообщений: 1713

Симпатии: 345

896680shkaff, Большое спасибо. Для настройки тередо TAS-IX для хрюши нет видео?Понимаю,что есть целая ветка на 89 страниц. Но так и не идёт для XP. bu
Может перейдешь уже на 7ку?

Создавать темы 23-Ноя-2014 08:26

[Профиль]  [ЛС] 

New-Release ®

Стаж: 5 лет 5 месяцев

Сообщений: 1713

Симпатии: 345

Не в коем случае не вписывать адреса
192.168.X.X
213.230.X.X

Создавать темы 23-Ноя-2014 09:03

[Профиль]  [ЛС] 

roman80

Стаж: 7 лет 7 месяцев

Сообщений: 24

спасибо) вот только сразу советуй запускать прогу IP2, одним кликом избавляешься от нужды лазить в настройки модема.

Создавать темы 23-Ноя-2014 19:24

[Профиль]  [ЛС] 

New-Release ®

Стаж: 5 лет 5 месяцев

Сообщений: 1713

Симпатии: 345

896830спасибо) вот только сразу советуй запускать прогу IP2, одним кликом избавляешься от нужды лазить в настройки модема.
:cc: :cd: Советую посмотреть свой айпи в модеме-роутере. tu

Создавать темы 24-Ноя-2014 03:50

[Профиль]  [ЛС] 

Selector

Стаж: 5 лет

Сообщений: 82

Симпатии: 1

Не могу зайти в настройки модема по ip 192.168.0.1 выходит ошибка. Что делать кто знает?

Создавать темы 16-Дек-2014 18:27

[Профиль]  [ЛС] 

abuz85

Стаж: 8 лет 10 месяцев

Сообщений: 109

Симпатии: 80

Selector, 192.168.1.1

Создавать темы 16-Дек-2014 18:41

[Профиль]  [ЛС] 

Selector

Стаж: 5 лет

Сообщений: 82

Симпатии: 1

Никак ли не влияет то что у меня Ip типа: 10.5.x.x

Создавать темы 16-Дек-2014 21:37

[Профиль]  [ЛС] 

New-Release ®

Стаж: 5 лет 5 месяцев

Сообщений: 1713

Симпатии: 345

902604Никак ли не влияет то что у меня Ip типа: 10.5.x.x
Нет.

Создавать темы 20-Дек-2014 23:55

[Профиль]  [ЛС] 

New-Release ®

Стаж: 5 лет 5 месяцев

Сообщений: 1713

Симпатии: 345

Для начала наберите в адресной строке (CMD): ipconfig,или запустите программу IP2->LAN IP
Если покажет ваш реальный IP-адрес (присвоенный провайдером) то вписываем его в торрент-клиент.
Если IP-адреса начинаются на 192.168.Х.Х,то в настройках модем-роутера находим свой IP-адрес. ah
Для входа в режим модема-роутера:В адресной строке Браузера набираем 192.168.1.1 или 192.168.0.1
По умолчанию Логин и пароль: admin


Последний раз редактировалось: New-Release (2015-01-06 11:26), всего редактировалось 1 раз

Создавать темы 03-Янв-2015 23:48

[Профиль]  [ЛС] 

nigush

Стаж: 5 лет 6 месяцев

Сообщений: 137

Симпатии: 4

супер спасиба

Создавать темы 05-Янв-2015 00:57

[Профиль]  [ЛС] 

Ethereal

Стаж: 5 лет 9 месяцев

Сообщений: 13

РАЗДАВАЙТЕ НЕ КАЧАЕТ У МЯ

Создавать темы 07-Янв-2015 14:13

[Профиль]  [ЛС] 
Показать сообщения:    
Ответить на тему

Текущее время: 18-Ноя 17:21

Часовой пояс: UTC + 5



Вы не можете начинать темы
Вы не можете отвечать на сообщения
Вы не можете редактировать свои сообщения
Вы не можете удалять свои сообщения
Вы не можете голосовать в опросах
Вы не можете прикреплять файлы к сообщениям
Вы не можете скачивать файлы