Курт Сеит и Шура / Kurt Seyit ve Şura / Сезон: 2 / Серии: 14-21 (21) (Хилаль Сарал / Hilal Saral) [2014, Турция, Драма, мелодрама, военный, история, HDTVRip] VO (Ирина Котова)

Ответить на тему
 

alisher.1989 ®

Стаж: 5 лет 9 месяцев

Сообщений: 92

Симпатии: 6

Курт Сеит и Шура / Kurt Seyit ve Şura
Сезон 2 / Серии 5 из 13:
Год выпуска: 2014
Страна: Турция
Жанр: Драма, мелодрама, военный, история
Продолжительность: 01:45:40
Перевод: Любительский одноголосый закадровый (Ирина Котова)
Режиссер: Хилаль Сарал
В ролях: Кыванч Татлытуг, Фара Зейнеп Абдулла, Berk Erçer, Сердар Гёкхан, Седа Гувен, Биркан Сокуллу, Сергей Тэсслер
Описание: Герои переживут крах правящей царской династии и Октябрьскую революцию. На фоне этих исторических событий, полных трагизма, горьких утрат, жестоких разочарований, и развернется история любви между бывшим офицером Царской армии лейтенантом Куртом Сеитом и шестнадцатилетней девушкой из аристократического рода Шурой.
Качество: HDTVRip
Формат: AVI
Видео кодек: XviD
Аудио кодек: MP3
Видео: MPEG-4 Visual, XviD, 720x400 (16:9), 1 670 Kbps, 25.000 fps, Bits/(Pixel*Frame): 0.232
Аудио: MP3, 2 ch, 44.1 KHz, 192 Kbps - Русский
:

Скриншоты

Media Info

Format : AVI
Format/Info : Audio Video Interleave
File size : 1.18 GiB
Duration : 1h 32mn
Overall bit rate : 1 814 Kbps
Writing application : VirtualDubMod 1.5.10.2 (build 2540/release)
Writing library : VirtualDubMod build 2540/release
Video
ID : 0
Format : MPEG-4 Visual
Format profile : Advanced [email protected]
Format settings, BVOP : 2
Format settings, QPel : No
Format settings, GMC : No warppoints
Format settings, Matrix : Default (H.263)
Muxing mode : Packed bitstream
Codec ID : XVID
Codec ID/Hint : XviD
Duration : 1h 32mn
Bit rate : 1 613 Kbps
Width : 720 pixels
Height : 400 pixels
Display aspect ratio : 16:9
Frame rate : 25.000 fps
Color space : YUV
Chroma subsampling : 4:2:0
Bit depth : 8 bits
Scan type : Progressive
Compression mode : Lossy
Bits/(Pixel*Frame) : 0.224
Stream size : 1.05 GiB (89%)
Writing library : XviD 1.1.2 (UTC 2006-11-01)
Audio
ID : 1
Format : MPEG Audio
Format version : Version 1
Format profile : Layer 3
Codec ID : 55
Codec ID/Hint : MP3
Duration : 1h 32mn
Bit rate mode : Constant
Bit rate : 192 Kbps
Channel(s) : 2 channels
Sampling rate : 44.1 KHz
Compression mode : Lossy
Stream size : 128 MiB (11%)
Alignment : Split accross interleaves
Interleave, duration : 40 ms (1.00 video frame)
Interleave, preload duration : 500 ms


Последний раз редактировалось: alisher.1989 (2014-12-17 11:26), всего редактировалось 3 раз(а)

Создавать темы 25-Ноя-2014 22:15

[Профиль]  [ЛС] 

phenominon

Стаж: 3 года 11 месяцев

Сообщений: 1

а 21ю можно ?:)

Создавать темы 27-Ноя-2014 00:27

[Профиль]  [ЛС] 

lol1

Стаж: 4 года 1 месяц

Сообщений: 30

Симпатии: 1

а где 22, 23 серия ?

Создавать темы 28-Ноя-2014 12:32

[Профиль]  [ЛС] 

alisher.1989 ®

Стаж: 5 лет 9 месяцев

Сообщений: 92

Симпатии: 6

добавлен 19-20-21 серии обновите торрент файл

Создавать темы 17-Дек-2014 11:02

[Профиль]  [ЛС] 

lol1

Стаж: 4 года 1 месяц

Сообщений: 30

Симпатии: 1

у меня 97. 2% скачан.а дальше некачает, почему ?помогите пжл....

Создавать темы 23-Янв-2015 13:46

[Профиль]  [ЛС] 
Показать сообщения:    
Ответить на тему

Текущее время: 15-Дек 17:22

Часовой пояс: UTC + 5



Вы не можете начинать темы
Вы не можете отвечать на сообщения
Вы не можете редактировать свои сообщения
Вы не можете удалять свои сообщения
Вы не можете голосовать в опросах
Вы не можете прикреплять файлы к сообщениям
Вы не можете скачивать файлы