Заезжий молодец (Кира Ангелина) [2014 г., Мелодрама, HDTVRip]

Ответить на тему
 

Старый Дядька ®

Стаж: 5 лет 1 месяц

Сообщений: 566

Симпатии: 400

Заезжий молодец-- Год выпуска: 2014
Страна: Россия
Жанр: Мелодрама
Продолжительность: 1:30:30
Перевод: Не требуется-Режиссер: Кира Ангелина
Сценарий: Татьяна Сарана
Продюсер: Александр Кушаев, Ирина Смирнова
Оператор: Антон Хмельков-В ролях: Мария Куликова, Александр Усердин, Алексей Зубков, Артур Псакин, Наталия Просветова, Диана Енакаева, Татьяна Шатилова, Александр Сергеев, Олег Юдин, Роман Багратионов-Описание:
Лариса — сильная женщина, которая давно привыкла сама справляться с любыми проблемами. Она в одиночку воспитывает непростого сына-подростка, тяжёлым трудом зарабатывает на жизнь, и давно отчаялась обрести личное счастье.
Соседка Ларисы, желая завладеть её домом, сводит героиню со своим племянником Олегом, недалеким солдафоном. Устав от бесконечного одиночества, Лариса пытается построить с ним отношения, но сговор вскоре раскрывается…
Неожиданно Лариса становится свидетельницей того, как полиция задерживает на улице мужчину без документов. Проникнувшись к незнакомцу, героиня помогает ему освободиться и платит за него штраф. На следующий день спасённый появляется у неё дома, но вовсе не затем, чтобы отдать долг — он просит Ларису о ночлеге. В гневе героиня прогоняет его, но дальнейшие события в корне меняют отношение женщины к этому человеку, так странно появившемуся в её жизни…-Премьера (мир) - 18 октября 2014
Премьера (РФ) - 22 ноября 2014-Возраст: 12+ зрителям, достигшим 12 лет- -Качество: HDTVRip
Формат: AVI
Видео кодек: XviD
Аудио кодек: AC3-Видео: 1967 Кбит/сек, 720 х 400 пикселей, 25,000 кадров/сек
Аудио: 192 Кбит/сек, 2 канала, 48,0 КГц

MediaInfo

Общее
Полное имя : F:\Фильмы\Заезжий молодец (2014) HDTVRip\Заезжий молодец.2014.HDTVRip.avi
Формат : AVI
Формат/Информация : Audio Video Interleave
Размер файла : 1,37 Гбайт
Продолжительность : 1 ч. 30 м.
Общий поток : 2169 Кбит/сек
Программа кодирования : VirtualDubMod 1.5.10.3 | www.virtualdub-fr.org || (build 2550/release)
Библиотека кодирования : VirtualDubMod build 2550/release
Видео
Идентификатор : 0
Формат : MPEG-4 Visual
Профиль формата : Advanced [email protected]
Параметр BVOP формата : 2
Параметр QPel формата : Нет
Параметр GMC формата : Без точки перехода
Параметр матрицы формата : Выборочная
Идентификатор кодека : XVID
Идентификатор кодека/Подсказка : XviD
Продолжительность : 1 ч. 30 м.
Битрейт : 1967 Кбит/сек
Ширина : 720 пикселей
Высота : 400 пикселей
Соотношение сторон : 16:9
Частота кадров : 25,000 кадров/сек
Цветовое пространство : YUV
Субдискретизация насыщенности : 4:2:0
Битовая глубина : 8 бит
Тип развёртки : Прогрессивная
Метод сжатия : С потерями
Бит/(Пиксели*Кадры) : 0.273
Размер потока : 1,24 Гбайт (91%)
Библиотека кодирования : XviD 73
Аудио
Идентификатор : 1
Формат : AC-3
Формат/Информация : Audio Coding 3
Расширение режима : CM (complete main)
Параметр Endianness формата : Big
Идентификатор кодека : 2000
Продолжительность : 1 ч. 30 м.
Вид битрейта : Постоянный
Битрейт : 192 Кбит/сек
Каналы : 2 канала
Расположение каналов : Front: L R
Частота : 48,0 КГц
Битовая глубина : 16 бит
Метод сжатия : С потерями
Размер потока : 124 Мбайт (9%)
Выравнивание : Разделение по промежуткам
Продолжительность промежутка : 40 мс. (1,00 видеокадр)
Время предзагрузки промежутка : 500 мс.

Скриншоты






Последний раз редактировалось: Старый Дядька (2014-11-27 03:15), всего редактировалось 1 раз

Создавать темы 26-Ноя-2014 16:12

[Профиль]  [ЛС] 

Slapper

Стаж: 3 года 11 месяцев

Сообщений: 2193

Симпатии: 213

думаю, что всё таки HDTVRip относится к этому подразделу.
т.к. это практически тот же HDRip, только с логотипом телеканала.
Или я что-то путаю?

Создавать темы 26-Ноя-2014 16:26

[Профиль]  [ЛС] 

Старый Дядька ®

Стаж: 5 лет 1 месяц

Сообщений: 566

Симпатии: 400

897522думаю, что всё таки HDTVRip относится к этому подразделу.
т.к. это практически тот же HDRip, только с логотипом телеканала.
Или я что-то путаю?
Насчёт HDTVRip - незнаю, вопрос спорный.
Но одно точно - фильм не имеет отношение к этому разделу на 100%.
Год выпуска - 2014, однако.

Создавать темы 26-Ноя-2014 16:45

[Профиль]  [ЛС] 

Slapper

Стаж: 3 года 11 месяцев

Сообщений: 2193

Симпатии: 213

valeri-mvv-101, ну да, в смысле к этому (ошибся).
ну окай, модераторы если что перенесут, им виднее :)

Создавать темы 26-Ноя-2014 16:51

[Профиль]  [ЛС] 

Топик был перенесен из форума CamRip\Telesync\SATRip\TVRip в форум Фильмы за 2014
Grock

Создавать темы 26-Ноя-2014 17:12

 

Старый Дядька ®

Стаж: 5 лет 1 месяц

Сообщений: 566

Симпатии: 400

Исправил описание.
Ошибка там была.
Сейчас вроде всё правильно.
Торрент файл тот же.

Создавать темы 27-Ноя-2014 03:20

[Профиль]  [ЛС] 

svenmax

Стаж: 5 лет 9 месяцев

Сообщений: 16

Симпатии: 1

Спасибо! Отличный семейный фильм

Создавать темы 28-Ноя-2014 00:12

[Профиль]  [ЛС] 

inkus

Стаж: 7 лет 5 месяцев

Сообщений: 50

Симпатии: 39

спасибо за фильм!!!

Создавать темы 26-Дек-2014 16:46

[Профиль]  [ЛС] 
Показать сообщения:    
Ответить на тему

Текущее время: 18-Окт 18:11

Часовой пояс: UTC + 5



Вы не можете начинать темы
Вы не можете отвечать на сообщения
Вы не можете редактировать свои сообщения
Вы не можете удалять свои сообщения
Вы не можете голосовать в опросах
Вы не можете прикреплять файлы к сообщениям
Вы не можете скачивать файлы