Охотник на зомби / Zombie Hunter (К. Кинг) [2013 г., фантастика, боевик, триллер, HDRip]

Ответить на тему
 

Старый Дядька ®

Стаж: 5 лет 1 месяц

Сообщений: 566

Симпатии: 400

Охотник на зомби / Zombie Hunter-- Год выпуска: 2013
Страна: США
Жанр: фантастика, боевик, триллер
Продолжительность: 01:32:46
Перевод: Профессиональный (многоголосый, закадровый)-Режиссер: К. Кинг-В ролях: Мартин Коппинг, Дэнни Трехо, Клэр Нидерпрюэм, Джейд Рэгир, Джейсон К. Уиксом, Джэйк Суазо, Терри Гатри, Шона Кэй, Джефф Киркэм, Майкл Монастерио, ...-Описание:
Охотник-одиночка путешествует по постапокалиптическому миру, кишащему зомби. Вся его семья погибла, и теперь он мстит за них. На пути ему встречается колония поселенцев, которые с трудом сдерживают атаки мутантов. Он — их последняя надежда в этом мире. Но согласится ли одиночка объединить усилия?-Бюджет: $1 000 000
Премьера (мир): 26 июля 2013- -Качество: HDRip
Формат: AVI
Видео кодек: XviD
Аудио кодек: AC3-Видео: 1908 Кбит/сек, 720 х 304 пикселей, 23,976 кадра/сек
Аудио: 192 Кбит/сек, 2 канала, 48,0 КГц-

MediaInfo

Общее
Полное имя : F:\Фильмы\Охотник на зомби.PM.HDRip\Ohotnik.na.zombi.2013.P.HDRip.avi
Формат : AVI
Формат/Информация : Audio Video Interleave
Размер файла : 1,37 Гбайт
Продолжительность : 1 ч. 32 м.
Общий поток : 2109 Кбит/сек
Программа кодирования : VirtualDubMod 1.5.10.2 (build 2540/release)
Библиотека кодирования : VirtualDubMod build 2540/release
Видео
Идентификатор : 0
Формат : MPEG-4 Visual
Профиль формата : Advanced [email protected]
Параметр BVOP формата : 2
Параметр QPel формата : Нет
Параметр GMC формата : Без точки перехода
Параметр матрицы формата : Default (MPEG)
Идентификатор кодека : XVID
Идентификатор кодека/Подсказка : XviD
Продолжительность : 1 ч. 32 м.
Битрейт : 1908 Кбит/сек
Ширина : 720 пикселей
Высота : 304 пикселя
Соотношение сторон : 2,35:1
Частота кадров : 23,976 кадра/сек
Цветовое пространство : YUV
Субдискретизация насыщенности : 4:2:0
Битовая глубина : 8 бит
Тип развёртки : Прогрессивная
Метод сжатия : С потерями
Бит/(Пиксели*Кадры) : 0.363
Размер потока : 1,24 Гбайт (90%)
Библиотека кодирования : XviD 1.2.1 (UTC 2008-12-04)
Аудио
Идентификатор : 1
Формат : AC-3
Формат/Информация : Audio Coding 3
Расширение режима : CM (complete main)
Параметр Endianness формата : Big
Идентификатор кодека : 2000
Продолжительность : 1 ч. 32 м.
Вид битрейта : Постоянный
Битрейт : 192 Кбит/сек
Каналы : 2 канала
Расположение каналов : Front: L R
Частота : 48,0 КГц
Битовая глубина : 16 бит
Метод сжатия : С потерями
Размер потока : 127 Мбайт (9%)
Выравнивание : Разделение по промежуткам
Продолжительность промежутка : 42 мс. (1,00 видеокадр)
Время предзагрузки промежутка : 500 мс.

Скриншоты





Создавать темы 26-Ноя-2014 22:21

[Профиль]  [ЛС] 

Старый Дядька ®

Стаж: 5 лет 1 месяц

Сообщений: 566

Симпатии: 400

Исправил тех данные.
Сейчас вроде правильно.
Торрент файл тот же.

Создавать темы 27-Ноя-2014 04:25

[Профиль]  [ЛС] 

AZIZ97

Стаж: 5 лет 1 месяц

Сообщений: 199

Симпатии: 22

стоит посмотреть?

Создавать темы 27-Ноя-2014 14:18

[Профиль]  [ЛС] 

dwerty

Стаж: 6 лет 3 месяца

Сообщений: 39

Симпатии: 5

Второй скрин конечно убил во мне напрочь всякое природное влечение к противоположному полу))))))))))))))))))) Люди хорош "подобное" качать и смотреть. Это просто:"АААААААААА" Хотя релизер потрудился, но брат релизь более что-либо достойное.

Создавать темы 27-Ноя-2014 15:46

[Профиль]  [ЛС] 

iskanderfear

Стаж: 3 года 11 месяцев

Сообщений: 31

Бюджет 1млн. с фильмом ясно) Но вопрос что Мачете бесплатно снимается) bu

Создавать темы 07-Дек-2014 20:10

[Профиль]  [ЛС] 
Показать сообщения:    
Ответить на тему

Текущее время: 23-Окт 11:07

Часовой пояс: UTC + 5



Вы не можете начинать темы
Вы не можете отвечать на сообщения
Вы не можете редактировать свои сообщения
Вы не можете удалять свои сообщения
Вы не можете голосовать в опросах
Вы не можете прикреплять файлы к сообщениям
Вы не можете скачивать файлы