Город героев / Big Hero 6 (Дон Холл, Крис Уильямс) [2014., США, мультфильм, фантастика, комедия, семейный, боевик,] WEB-DL 720p] [Чистый звук]

Страницы :  1, 2  След.

Ответить на тему
 

Страх ®

Стаж: 3 года 10 месяцев

Сообщений: 1131

Симпатии: 448

Город героев / Big Hero 6- -Год выпуска: 2014 Страна: США Жанр: мультфильм, фантастика, комедия, семейный, боевик Продолжительность: 01:41:53, Перевод: Дублированный Официальный - Чистый ЗвукДорожка с меню имеются по эпизодам-Режиссер: Дон Холл, Крис Уильямс-В ролях: Райан Поттер, Скотт Эдсит, Джейми Чунг, ТиДжей Миллер, Дженезис Родригез, Дэймон Уайанс мл., Майя Рудольф, Джеймс Кромуэлл, Алан Тьюдик, Чарльз Адлер-Описание:Юный Хиро Хамада - прирожденный изобретатель и гений конструирования роботов. Вместе со старшим братом Тадаши они воплощают в жизнь самые передовые идеи в Техническом университете города будущего Сан-Франсокио. После серии загадочных событий друзья оказываются в центре коварного заговора. Отчаявшись, Хиро решает использовать веселого и добродушного экспериментального робота Бэймакса, перепрограммировав его в неуязвимую боевую машину.- -Сценарий: Джордан Робертс, Дэниел Герсон, Роберт Л. Бейрд,Продюсер: Рой Конли, Джон Лассетер, Кристина Рид,Композитор: Генри ДжекманХудожник: Пол А. Феликс, Scott WatanabeМонтаж: Тим Мертенс-Бюджет: $165 000 000 Сборы в США: $114 472 033 Сборы в мире: + $36 700 000 = $151 172 033Качество: WEB-DL 720p Формат: MKV Видео кодек: MPEG4 (H264)Аудио кодек: AC3
Видео: MPEG4 Video (H264) 1280x534 Аудио RU: Dolby AC3 48000Hz stereo 128kbp [Ru] Аудио ENAC3 48000Hz 6ch 384kbps
-

Медиа Инфо

General
Unique ID : 221272342509179569714219117577669679010 (0xA67780C6983A804DAE2269C5AE9397A2)
Complete name : D:\Tracker\Movie Files\BIG6HERO_D_WEB_DL_720p.mkv
Format : Matroska
Format version : Version 4 / Version 2
File size : 3.18 GiB
Duration : 1h 41mn
Overall bit rate : 4 463 Kbps
Encoded date : UTC 2015-02-03 05:21:16
Writing application : mkvmerge v6.9.1 ('Blue Panther') 64bit built on Apr 18 2014 18:23:38
Writing library : libebml v1.3.0 + libmatroska v1.4.1
Video
ID : 1
Format : AVC
Format/Info : Advanced Video Codec
Format profile : [email protected]
Format settings, CABAC : No
Format settings, ReFrames : 2 frames
Codec ID : V_MPEG4/ISO/AVC
Duration : 1h 41mn
Bit rate : 3 862 Kbps
Width : 1 280 pixels
Height : 534 pixels
Display aspect ratio : 2.40:1
Frame rate mode : Constant
Frame rate : 23.976 fps
Color space : YUV
Chroma subsampling : 4:2:0
Bit depth : 8 bits
Scan type : Progressive
Bits/(Pixel*Frame) : 0.236
Stream size : 2.75 GiB (87%)
Language : English
Default : Yes
Forced : No
Color primaries : BT.709
Transfer characteristics : BT.709
Matrix coefficients : BT.709
Audio #1
ID : 2
Format : AC-3
Format/Info : Audio Coding 3
Mode extension : CM (complete main)
Format settings, Endianness : Big
Codec ID : A_AC3
Duration : 1h 41mn
Bit rate mode : Constant
Bit rate : 128 Kbps
Channel(s) : 2 channels
Channel positions : Front: L R
Sampling rate : 48.0 KHz
Bit depth : 16 bits
Compression mode : Lossy
Stream size : 93.3 MiB (3%)
Language : Russian
Default : Yes
Forced : No
Audio #2
ID : 3
Format : AC-3
Format/Info : Audio Coding 3
Mode extension : CM (complete main)
Format settings, Endianness : Big
Codec ID : A_AC3
Duration : 1h 41mn
Bit rate mode : Constant
Bit rate : 384 Kbps
Channel(s) : 6 channels
Channel positions : Front: L C R, Side: L R, LFE
Sampling rate : 48.0 KHz
Bit depth : 16 bits
Compression mode : Lossy
Stream size : 280 MiB (9%)
Language : English
Default : No
Forced : No
Menu
00:00:00.000 : en:Hustle
00:07:16.000 : en:Nerd School
00:14:38.000 : en:Showcase
00:21:50.000 : en:Tragedy
00:24:33.000 : en:A New Friend
00:29:35.000 : en:Being Helpful
00:36:59.000 : en:Upgrade
00:44:19.000 : en:The Chase
00:50:50.000 : en:Fred's House
00:54:33.000 : en:Training
01:00:45.000 : en:Secret Lair
01:07:13.000 : en:Big Reveal
01:11:55.000 : en:Putting It All Together
01:16:27.000 : en:Saves The Day!
01:24:45.000 : en:The Portal
01:31:56.000 : en:End Credits

Скриншоты




-

WOW Скриншоты



Последний раз редактировалось: Страх (2015-02-06 00:18), всего редактировалось 9 раз(а)

Создавать темы 27-Ноя-2014 22:39

[Профиль]  [ЛС] 

Страх ®

Стаж: 3 года 10 месяцев

Сообщений: 1131

Симпатии: 448

Для экранки хорошая картинка и звук хороший, сам лично посмотрел. И доволен, когда выйдет качество, обезательно с удовольствием посмотрю еще раз.
Пусть всё как бы знакомо, и экранная линия предсказуема, но всё же очень приятный сюжет.
Снят на стабильном штативе, без движений, голоса из студии нет, есть но они не заметны, и голоса малышей они будто как бонус прилагаются)смешно так) когда девочка говорит "Птичка"
Звук для экранки хороший.

Создавать темы 27-Ноя-2014 22:48

[Профиль]  [ЛС] 

Страх ®

Стаж: 3 года 10 месяцев

Сообщений: 1131

Симпатии: 448

(( люди может релиз сделаете, лучшего качество(((?:

Создавать темы 05-Дек-2014 09:39

[Профиль]  [ЛС] 

nikitkanikitka

Стаж: 5 лет 6 месяцев

Сообщений: 31

899628(( люди может релиз сделаете, лучшего качество(((?:
поддерживаю! очень хочется посмотреть в качестве tx

Создавать темы 16-Дек-2014 22:45

[Профиль]  [ЛС] 

Flatonfloor

Стаж: 4 года 5 месяцев

Сообщений: 179

Симпатии: 30

В качестве пока еще нигде нету.

Создавать темы 18-Дек-2014 09:35

[Профиль]  [ЛС] 

Григорий К

Стаж: 4 года 11 месяцев

Сообщений: 569

Симпатии: 284

А в Кино в 3D уже есть? )))

Создавать темы 12-Янв-2015 22:03

[Профиль]  [ЛС] 

Flatonfloor

Стаж: 4 года 5 месяцев

Сообщений: 179

Симпатии: 30

Нету, есть в vhs формате.

Создавать темы 12-Янв-2015 23:00

[Профиль]  [ЛС] 

Страх ®

Стаж: 3 года 10 месяцев

Сообщений: 1131

Симпатии: 448

Звук походу пока норм не вышел, пока только картинка норм. Обновил Кемприп на Двдскриновый.

Создавать темы 19-Янв-2015 18:28

[Профиль]  [ЛС] 

Mixer City

Стаж: 6 лет 7 месяцев

Сообщений: 754

Симпатии: 63

Странные Вы люди, ну пока на BD не будет, откуда качеству взяться? Как только так сразу, благо всё быстро появляется... Смотреть такое онли в отл. качестве...

Создавать темы 19-Янв-2015 19:04

[Профиль]  [ЛС] 

Aset

Стаж: 3 года 10 месяцев

Сообщений: 54

Симпатии: 3

а почему фильм переведён как город героев а не большой герой?

Создавать темы 19-Янв-2015 19:13

[Профиль]  [ЛС] 

Старый Дядька

Стаж: 4 года 11 месяцев

Сообщений: 566

Симпатии: 400

Страх. Файлик где брали?
Битый он в пух и прах - Соответствие 0%.
Проверьте сами Здесь.

У меня файлик этот есть.


Создавать темы 19-Янв-2015 21:20

[Профиль]  [ЛС] 

Страх ®

Стаж: 3 года 10 месяцев

Сообщений: 1131

Симпатии: 448

Старый Дядька, Этот файл залит с локалного сайта, там в большинстве случаев конвертируют, так что соответствие не будет. Фильмы редко я с внешки качаю.
Файл точно не битый, так как я сам лично проверяю на целостность файла. Но то что он не одинаковый, это уже думаю другая тема.
) извиняйте что хеш не подошел.
Кстати обновил релиз, вышла Лицензия.(Звук)ну или наподобии лицензии, теперь проверьте может теперь одинаковое? то что вы давали там AC3 походу теперь одинаково)... я тут три вариации скачивал уже запутался


Последний раз редактировалось: Страх (2015-01-20 18:34), всего редактировалось 1 раз

Создавать темы 20-Янв-2015 17:37

[Профиль]  [ЛС] 

(Eminem)

Стаж: 5 лет 2 месяца

Сообщений: 56

Симпатии: 6

Страх, Как так, в лицензии же 6 каналов, а тут написано 2. Возможно Вы забыли обновить старые данные?!

Создавать темы 20-Янв-2015 18:07

[Профиль]  [ЛС] 

Страх ®

Стаж: 3 года 10 месяцев

Сообщений: 1131

Симпатии: 448

(Eminem), Ограниченная). ну сами послушайте, если не верите. Там же написано Dolby.
Походу ремикс или конверированный вариант. Вчера скачивал Чистом звуке (MP3) формате, сегодня обновили релиз в AC3 звуке Dolby (Stereo), В чистом звуке стерео не может быть, если даже может то и синтетический звук получается.

Создавать темы 20-Янв-2015 18:19

[Профиль]  [ЛС] 

Страх ®

Стаж: 3 года 10 месяцев

Сообщений: 1131

Симпатии: 448

Внимание, новый файл с предедущим файлом один в один (и такое бывает) но старом MP3 Чистый звук. А новый AC3 (с 2 мя каналами Долби Стерео.)
Так как чтобы не было путаницы, переименовал файл. А то смотрю раздающие не поменялись(. Но все же думаю,это не лицензия)))
А все) Нашел), Официальный Чистый Звук).

Создавать темы 20-Янв-2015 18:37

[Профиль]  [ЛС] 
Показать сообщения:    
Ответить на тему

Текущее время: 20-Авг 15:01

Часовой пояс: UTC + 5



Вы не можете начинать темы
Вы не можете отвечать на сообщения
Вы не можете редактировать свои сообщения
Вы не можете удалять свои сообщения
Вы не можете голосовать в опросах
Вы не можете прикреплять файлы к сообщениям
Вы не можете скачивать файлы