Охотники на демонов 3D/ Hellbenders 3D (Дж.Т. Петти) [2012 г., Комедия, Ужасы, BDRip, 1080p, 3D]

Ответить на тему
 

utkir4891 ®

Стаж: 4 года 5 месяцев

Сообщений: 14

Симпатии: 12

Охотники на демонов / Hellbenders- Год выпуска: 2012
Страна: США (Lionsgate, Circle of Confusion)
Жанр: Комедия, Ужасы
Продолжительность: 01:26:44
Возраст: 18+
-Режиссер: Дж.Т. Петти
Продюсер: Дэвид Элперт, Миранда Бэйли, Джон С. Денни
Актеры: Клифтон Коллинз, Клэнси Браун, Андре Ройо, Робин Рикун, Макон Блэр, Стивен Геведон, Ларри Фесенден, Дэн Фоглер, Аарон Ауслендер, Эдоардо Баллерини, Патриция Бруно, Саманта Бак, Дэн Чен
-Описание: Эксцентричная комедия о команде распутных экзорцистов, изгоняющих нечистую силу, которая жаждет ввергнуть Землю в хаос. Члены Ордена используют любую возможность согрешить для того, чтобы привлечь внимание демонов. Их план прост и эффективен: они заставляют демона вселиться в одного из них, а потом берут его тепленьким. Но однажды они сталкиваются кое с кем посильнее, чем мелкие бесы. Сам Сатана решает бросить им вызов! Охотникам приходится впасть во все тяжкие и отправить дьявола обратно в Ад!-
Перевод: Профессиональный дублированный
Дата мировой премьеры: 9 сентября 2012
Дата российской премьеры: 31 октября 2013, «Наше Кино»
Дата выхода DVD релиза: 23 января 2014, «CD Land»
Рейтинг MPAA:
-Продолжительность: 01:26:44
Формат 3D: Вертикальная анаморфная стереопара
Качество видео: BDRip
Видеокодек: MPEG-4 AVC/H.264
Контейнер: MKV
Битрейт видео: ~7.6 Мбит/сек, 23,976 fps
Размер кадра: 1920x1080
Аудио 1: AC3 5.1, 48 KHz, 256 Kbps [Русский]
Аудио 2: AC3 5.1, 48 KHz, 640 kbps [Английский]
- -

Скриншоты

MediaInfo

General
Unique ID : 185419834492402857919726297156473640045 (0x8B7E8FA7BCDACE28BA6C3905CC98D46D)
Complete name : D:\Охотники на демонов\Охотники на демонов.mkv
Format : Matroska
Format version : Version 2
File size : 5.24 GiB
Duration : 1h 26mn
Overall bit rate : 8 646 Kbps
Movie name : Охотники на демонов / Hellbenders (2012) 3D
Encoded date : UTC 2014-04-02 14:34:16
Writing application : mkvmerge v5.8.0 ('No Sleep / Pillow') built on Sep 2 2012 15:37:04
Writing library : libebml v1.2.3 + libmatroska v1.3.0
Video
ID : 1
Format : AVC
Format/Info : Advanced Video Codec
Format profile : [email protected]
Format settings, CABAC : Yes
Format settings, ReFrames : 4 frames
Codec ID : V_MPEG4/ISO/AVC
Duration : 1h 26mn
Bit rate : 7 578 Kbps
Width : 1 920 pixels
Height : 1 080 pixels
Display aspect ratio : 16:9
Frame rate mode : Constant
Frame rate : 23.976 fps
Color space : YUV
Chroma subsampling : 4:2:0
Bit depth : 8 bits
Scan type : Progressive
Bits/(Pixel*Frame) : 0.152
Stream size : 4.59 GiB (88%)
Title : BDRip by Ash61
Writing library : x264 core 129 r2245 bc13772
Encoding settings : cabac=1 / ref=4 / deblock=1:-3:-3 / analyse=0x3:0x113 / me=umh / subme=10 / psy=1 / psy_rd=1.00:0.15 / mixed_ref=1 / me_range=32 / chroma_me=1 / trellis=2 / 8x8dct=1 / cqm=0 / deadzone=21,11 / fast_pskip=1 / chroma_qp_offset=-3 / threads=12 / lookahead_threads=2 / sliced_threads=0 / nr=0 / decimate=1 / interlaced=0 / bluray_compat=0 / constrained_intra=0 / bframes=10 / b_pyramid=2 / b_adapt=2 / b_bias=0 / direct=3 / weightb=1 / open_gop=0 / weightp=2 / keyint=250 / keyint_min=23 / scenecut=40 / intra_refresh=0 / rc_lookahead=60 / rc=crf / mbtree=1 / crf=18.0 / qcomp=0.70 / qpmin=0 / qpmax=69 / qpstep=4 / vbv_maxrate=40000 / vbv_bufsize=30000 / crf_max=0.0 / nal_hrd=none / frame-packing=4 / ip_ratio=1.40 / aq=1:0.70
Language : English
Default : Yes
Forced : No
Audio #1
ID : 2
Format : AC-3
Format/Info : Audio Coding 3
Mode extension : CM (complete main)
Format settings, Endianness : Big
Codec ID : A_AC3
Duration : 1h 26mn
Bit rate mode : Constant
Bit rate : 256 Kbps
Channel(s) : 6 channels
Channel positions : Front: L C R, Side: L R, LFE
Sampling rate : 48.0 KHz
Bit depth : 16 bits
Compression mode : Lossy
Stream size : 159 MiB (3%)
Title : Дубляж - R5
Language : Russian
Default : Yes
Forced : No
Audio #2
ID : 3
Format : AC-3
Format/Info : Audio Coding 3
Mode extension : CM (complete main)
Format settings, Endianness : Big
Codec ID : A_AC3
Duration : 1h 26mn
Bit rate mode : Constant
Bit rate : 640 Kbps
Channel(s) : 6 channels
Channel positions : Front: L C R, Side: L R, LFE
Sampling rate : 48.0 KHz
Bit depth : 16 bits
Compression mode : Lossy
Stream size : 397 MiB (7%)
Title : Original - BD 3D
Language : English
Default : No
Forced : No
Menu
00:00:00.000 : :1
00:05:57.357 : :2
00:10:47.647 : :3
00:19:38.094 : :4
00:31:20.295 : :5
00:43:51.796 : :6
00:49:48.527 : :7
00:53:50.185 : :8
01:00:48.228 : :9
01:05:22.043 : :10
01:17:32.940 : :11
01:21:34.181 : :12

Создавать темы 27-Ноя-2014 22:56

[Профиль]  [ЛС] 
Показать сообщения:    
Ответить на тему

Текущее время: 21-Ноя 22:37

Часовой пояс: UTC + 5



Вы не можете начинать темы
Вы не можете отвечать на сообщения
Вы не можете редактировать свои сообщения
Вы не можете удалять свои сообщения
Вы не можете голосовать в опросах
Вы не можете прикреплять файлы к сообщениям
Вы не можете скачивать файлы