Копенгаген / Copenhagen (Марк Расо) [2014 г., драма, мелодрама, приключения, WEB-DLRip]

Ответить на тему
 

Старый Дядька ®

Стаж: 5 лет 2 месяца

Сообщений: 566

Симпатии: 400

Копенгаген / Copenhagen-- Год выпуска: 2014
Страна: Канада, США, Дания
Жанр: драма, мелодрама, приключения
Продолжительность: 1:38:36
Перевод: Любительский (одноголосый) Datynet по переводу М. Васильева-Режиссер: Марк Расо-В ролях: Гетин Энтони, Фредерикке Даль Хансен, Себастьян Арместо, Кристиан Брандт, Thomas Buttenschøn, Джули Кристиансен, Милле Динесен, Peter Eriksen, Оливия Грант, Мартин Хестбек-Описание: Уильям после нескольких недель путешествия оказывается в Копенгагене. Это родина его отца. Герой решил навестить этот город. Здесь Уильям встречает молоденькую Эффи. Вскоре между ними завязываются дружеские отношения. Уильям вместе с Эффи отправляются на поиски его дедушки. В Эффи Уильям находит юношескую непосредственность, а также мудрость. Эти качества отличают ее от других девушек, с которыми дружил Уильям. Но их отношения вскоре оказываются под угрозой. Причина этому — темное прошлое семьи Уильяма.-Рейтинг:
 -Качество: WEB-DLRip
Формат: AVI
Видео: 720x400 (16:9), 23 976 fps, XviD, 1686 Kbps
Аудио: AC3, 384 Kbps, 48.0 KHz, 16 bits, 6 ch

Mediainfo

Общее
Полное имя : F:\Фильмы\Копенгаген.2014.L1.WEB-DLRip.avi
Формат : AVI
Формат/Информация : Audio Video Interleave
Размер файла : 1,43 Гбайт
Продолжительность : 1 ч. 38 м.
Общий поток : 2080 Кбит/сек
Программа кодирования : VirtualDubMod 1.5.10.2 (build 2542/release)
Библиотека кодирования : VirtualDubMod build 2542/release
Видео
Идентификатор : 0
Формат : MPEG-4 Visual
Профиль формата : Advanced [email protected]
Параметр BVOP формата : 2
Параметр QPel формата : Нет
Параметр GMC формата : Без точки перехода
Параметр матрицы формата : Default (H.263)
Режим смешивания : Сжатый битовый поток
Идентификатор кодека : XVID
Идентификатор кодека/Подсказка : XviD
Продолжительность : 1 ч. 38 м.
Битрейт : 1686 Кбит/сек
Ширина : 720 пикселей
Высота : 400 пикселей
Соотношение сторон : 16:9
Частота кадров : 23,976 кадра/сек
Цветовое пространство : YUV
Субдискретизация насыщенности : 4:2:0
Битовая глубина : 8 бит
Тип развёртки : Прогрессивная
Метод сжатия : С потерями
Бит/(Пиксели*Кадры) : 0.244
Размер потока : 1,16 Гбайт (81%)
Библиотека кодирования : XviD 64
Аудио
Идентификатор : 1
Формат : AC-3
Формат/Информация : Audio Coding 3
Расширение режима : CM (complete main)
Параметр Endianness формата : Big
Идентификатор кодека : 2000
Продолжительность : 1 ч. 38 м.
Вид битрейта : Постоянный
Битрейт : 384 Кбит/сек
Каналы : 6 каналов
Расположение каналов : Front: L C R, Side: L R, LFE
Частота : 48,0 КГц
Битовая глубина : 16 бит
Метод сжатия : С потерями
Размер потока : 271 Мбайт (18%)
Выравнивание : Разделение по промежуткам
Продолжительность промежутка : 42 мс. (1,00 видеокадр)
Время предзагрузки промежутка : 500 мс.

Скриншоты




Создавать темы 29-Ноя-2014 10:19

[Профиль]  [ЛС] 
Показать сообщения:    
Ответить на тему

Текущее время: 20-Ноя 12:49

Часовой пояс: UTC + 5



Вы не можете начинать темы
Вы не можете отвечать на сообщения
Вы не можете редактировать свои сообщения
Вы не можете удалять свои сообщения
Вы не можете голосовать в опросах
Вы не можете прикреплять файлы к сообщениям
Вы не можете скачивать файлы