Земля Хо! / Land Ho! (Аарон Кац, Марта Стефенс) [2014 г., комедия, приключения, HDRip] (Лицензия [iTunes])

Ответить на тему
 

Старый Дядька ®

Стаж: 5 лет 1 месяц

Сообщений: 566

Симпатии: 400

Земля Хо! / Land Ho!-- Год выпуска: 2014
Страна: Исландия, США
Жанр: комедия, приключения
Продолжительность: 1:35:09
Перевод: Профессиональный (многоголосый) Лицензия [iTunes]-
Режиссер: Аарон Кац, Марта Стефенс-В ролях: Эрл Линн Нельсон. Пол Инхорн, Даниэль Гильвасон, Трудюр Кристьяунсдоуттир, Кэрри Круз, Элизабет МакКи, Арнар Гудмундсон, Магнус Кр. Гудмундсон, Бьярни Триггвасон...-Описание: Близкие друзья Митч и Колин были женаты на двух сестрах. Они разошлись, когда Митч и его жена развелись, а жена Колина умерла.
Митч, отставной хирург, который не может смириться с жизнью на пенсии, вытаскивает Колина на отдых в Исландии. Этот билет — шанс воспрять духом для двух людей, которые получили свою долю разочарований, но в которых все еще не умер дух приключений.-Возраст: Лицам до 17 лет обязательно присутствие взрослого.
Премьера (мир): 19 января 2014-Рейтинг:
 -Качество: HDRip
Формат: AVI
Видео: XviD, 1805 Кбит/сек, 720х400 пикселей, (16:9), 23,976 кадра/сек
Аудио: AC-3, 384 Кбит/сек, 48,0 КГц, 6 каналов

Mediainfo

Общее
Полное имя : F:\Фильмы\Земля Хо.2014.PM.iTunes.HDRip\Земля Хо!.2014.PM.HDRip.avi
Формат : AVI
Формат/Информация : Audio Video Interleave
Размер файла : 1,46 Гбайт
Продолжительность : 1 ч. 35 м.
Общий поток : 2198 Кбит/сек
Программа кодирования : VirtualDubMod 1.5.10.3 | www.virtualdub-fr.org || (build 2550/release)
Библиотека кодирования : VirtualDubMod build 2550/release
Видео
Идентификатор : 0
Формат : MPEG-4 Visual
Профиль формата : Advanced [email protected]
Параметр BVOP формата : 2
Параметр QPel формата : Нет
Параметр GMC формата : Без точки перехода
Параметр матрицы формата : Default (MPEG)
Идентификатор кодека : XVID
Идентификатор кодека/Подсказка : XviD
Продолжительность : 1 ч. 35 м.
Битрейт : 1805 Кбит/сек
Ширина : 720 пикселей
Высота : 400 пикселей
Соотношение сторон : 16:9
Частота кадров : 23,976 кадра/сек
Цветовое пространство : YUV
Субдискретизация насыщенности : 4:2:0
Битовая глубина : 8 бит
Тип развёртки : Прогрессивная
Метод сжатия : С потерями
Бит/(Пиксели*Кадры) : 0.261
Размер потока : 1,20 Гбайт (82%)
Библиотека кодирования : XviD 1.2.1 (UTC 2008-12-04)
Аудио
Идентификатор : 1
Формат : AC-3
Формат/Информация : Audio Coding 3
Расширение режима : CM (complete main)
Параметр Endianness формата : Big
Идентификатор кодека : 2000
Продолжительность : 1 ч. 35 м.
Вид битрейта : Постоянный
Битрейт : 384 Кбит/сек
Каналы : 6 каналов
Расположение каналов : Front: L C R, Side: L R, LFE
Частота : 48,0 КГц
Битовая глубина : 16 бит
Метод сжатия : С потерями
Размер потока : 261 Мбайт (17%)
Выравнивание : Разделение по промежуткам
Продолжительность промежутка : 42 мс. (1,00 видеокадр)
Время предзагрузки промежутка : 500 мс.

Скриншоты




Создавать темы 30-Ноя-2014 14:47

[Профиль]  [ЛС] 
Показать сообщения:    
Ответить на тему

Текущее время: 24-Окт 05:13

Часовой пояс: UTC + 5



Вы не можете начинать темы
Вы не можете отвечать на сообщения
Вы не можете редактировать свои сообщения
Вы не можете удалять свои сообщения
Вы не можете голосовать в опросах
Вы не можете прикреплять файлы к сообщениям
Вы не можете скачивать файлы