Бегущий в лабиринте / The Maze Runner (Уэс Болл) [2014 г., фантастика, боевик, триллер, детектив, HDRip-AVC]

Ответить на тему
 

Azizbuhhh ®

Стаж: 5 лет 1 месяц

Сообщений: 11

Симпатии: 1

Бегущий в лабиринте / The Maze Runner-- Год выпуска: 2014
Страна: США
Жанр: фантастика, боевик, триллер, детектив
Продолжительность: 01:53:27
Перевод: Дублированное [iTunes]--Режиссер: Уэс Болл--В ролях: Дилан О’Брайэн, Кая Скоделарио, Уилл Поултер, Томас Сэнгстер, Патришия Кларксон, Ки Хонг Ли, Амл Амин, Блейк Купер, Крис Шеффилд, Карл Грин--Описание: Главный герой — подросток Томас, который просыпается в лифте, но ничего не помнит, кроме своего имени. Он оказывается среди 60 подростков, научившихся выживать в замкнутом пространстве. Раз в 30 дней прибывает новый мальчик. Группа ребят проживает в «Приюте» уже два года. Они кормятся тем, что удается вырастить на земле, и пытаются найти выход из лабиринта, окружающего их место жительства. Но однажды появляется девочка в состоянии комы…--Рейтинг:
 --Качество: HDRip-AVC
Формат: MKV
Видео кодек: x264
Аудио кодек: AC3
Видео: 1024x428 (2.40:1) ~1471 / 23.976 fps / 0.140 Bits/(Pixel*Frame)
Аудио: AC3, 6 ch, 384 Кбит/с----

Скриншоты





Media Info

Format : Matroska
Format version : Version 4 / Version 2
File size : 1.47 GiB
Duration : 1h 53mn
Overall bit rate : 1 854 Kbps
Movie name : Бегущий в лабиринте.2014 [SBJ]
Encoded date : UTC 2014-12-02 01:30:37
Writing application : mkvmerge v7.1.0 ('Good Love') 32bit built on Jul 27 2014 12:59:18
Writing library : libebml v1.3.0 + libmatroska v1.4.1
DURATION : 01:53:26.816000000
NUMBER_OF_FRAMES : 212713
NUMBER_OF_BYTES : 326727168
_STATISTICS_WRITING_APP : mkvmerge v7.1.0 ('Good Love') 32bit built on Jul 27 2014 12:59:18
_STATISTICS_WRITING_DATE_UTC : 2014-12-02 01:30:37
_STATISTICS_TAGS : BPS DURATION NUMBER_OF_FRAMES NUMBER_OF_BYTES
Video #1
ID : 1
Format : AVC
Format/Info : Advanced Video Codec
Format profile : [email protected]
Format settings, CABAC : Yes
Format settings, ReFrames : 9 frames
Codec ID : V_MPEG4/ISO/AVC
Duration : 1h 53mn
Bit rate : 1 471 Kbps
Width : 1 024 pixels
Height : 428 pixels
Display aspect ratio : 2.40:1
Frame rate mode : Constant
Frame rate : 23.976 fps
Color space : YUV
Chroma subsampling : 4:2:0
Bit depth : 8 bits
Scan type : Progressive
Bits/(Pixel*Frame) : 0.140
Stream size : 1.14 GiB (77%)
Title : Enigma-Vladislav71
Writing library : x264 core 133 r2334 a3ac64b
Encoding settings : cabac=1 / ref=9 / deblock=1:-2:-3 / analyse=0x3:0x113 / me=umh / subme=11 / psy=1 / psy_rd=1.00:0.15 / mixed_ref=1 / me_range=32 / chroma_me=1 / trellis=2 / 8x8dct=1 / cqm=0 / deadzone=21,11 / fast_pskip=0 / chroma_qp_offset=-3 / threads=12 / lookahead_threads=2 / sliced_threads=0 / nr=0 / decimate=0 / interlaced=0 / bluray_compat=0 / constrained_intra=0 / bframes=9 / b_pyramid=2 / b_adapt=2 / b_bias=0 / direct=3 / weightb=1 / open_gop=0 / weightp=2 / keyint=240 / keyint_min=23 / scenecut=40 / intra_refresh=0 / rc=2pass / mbtree=0 / bitrate=1471 / ratetol=1.0 / qcomp=0.60 / qpmin=0 / qpmax=69 / qpstep=4 / cplxblur=20.0 / qblur=0.5 / ip_ratio=1.40 / pb_ratio=1.30 / aq=1:1.00
Default : Yes
Forced : No
Color primaries : BT.709
Transfer characteristics : BT.709
Matrix coefficients : BT.709
Audio #2
ID : 2
Format : AC-3
Format/Info : Audio Coding 3
Mode extension : CM (complete main)
Format settings, Endianness : Big
Codec ID : A_AC3
Duration : 1h 53mn
Bit rate mode : Constant
Bit rate : 384 Kbps
Channel(s) : 6 channels
Channel positions : Front: L C R, Side: L R, LFE
Sampling rate : 48.0 KHz
Bit depth : 16 bits
Compression mode : Lossy
Stream size : 312 MiB (21%)
Title : Дублированный [ iTunes]
Language : Russian
Default : Yes
Forced : No


Последний раз редактировалось: Azizbuhhh (2014-12-06 14:22), всего редактировалось 1 раз

Создавать темы 05-Дек-2014 21:19

[Профиль]  [ЛС] 

Иви

Стаж: 5 лет 11 месяцев

Сообщений: 688

Симпатии: 65

MediaInfo предоставьте

Создавать темы 06-Дек-2014 11:56

[Профиль]  [ЛС] 

Azizbuhhh ®

Стаж: 5 лет 1 месяц

Сообщений: 11

Симпатии: 1

Иви, исправил


Последний раз редактировалось: Azizbuhhh (2014-12-07 16:58), всего редактировалось 1 раз

Создавать темы 06-Дек-2014 14:22

[Профиль]  [ЛС] 

Топик был перенесен из форума Фильмы за 2014 в форум HD-AVC
Иви

Создавать темы 07-Дек-2014 15:13

 
Показать сообщения:    
Ответить на тему

Текущее время: 11-Дек 14:20

Часовой пояс: UTC + 5



Вы не можете начинать темы
Вы не можете отвечать на сообщения
Вы не можете редактировать свои сообщения
Вы не можете удалять свои сообщения
Вы не можете голосовать в опросах
Вы не можете прикреплять файлы к сообщениям
Вы не можете скачивать файлы