История Игрушек: То, что забыто / Toy Story That Time Forgot (Стив Пурселл) [2014 г., мультфильм, короткометражка, HDTVRip]

Ответить на тему
 

SNation ®

Стаж: 4 года 6 месяцев

Сообщений: 81

Симпатии: 70

-История Игрушек: То, что забыто / Toy Story That Time Forgot
Год выпуска: 2014
Страна: США
Жанр: мультфильм, короткометражка
Продолжительность: 00:21:28
Перевод: Любительское (одноголосое) [Lord32x]-Режиссер: Стив Пурселл-В ролях:
Эмили Хан, Уоллес Шоун, Стив Пурселл, Джонатан Кидд, Дон Риклз, Лори Алан, Тим Аллен, Рон Боттитта, Джоан Кьюсак, Тимоти Далтон
Описание: Вот прошли рождественские праздники, и наши старые друзья попадают в чужой дом, где должны противостоять агрессивным и опасным игрушкам-динозаврам.-Качество: HDTVRip
Формат: AVI
Видео кодек: XviD
Аудио кодек:AC3
Видео данные: XviD ,1725 kb/s, 720x400
Аудио данные: AC3, 384 kb/s (6 ch)

MI

General
Complete name                            : D:\Toy.Story.That.Time.Forgot2014.HDTVRip.avi
Format                                   : AVI
Format/Info                              : Audio Video Interleave
File size                                : 325 MiB
Duration                                 : 21mn 28s
Overall bit rate                         : 2 118 Kbps
Writing application                      : VirtualDubMod 1.5.10.3 | www.virtualdub-fr.org || (build 2550/release)
Writing library                          : VirtualDubMod build 2550/release
Video
ID                                       : 0
Format                                   : MPEG-4 Visual
Format profile                           : Advanced [email protected]
Format settings, BVOP                    : 1
Format settings, QPel                    : No
Format settings, GMC                     : No warppoints
Format settings, Matrix                  : Default (H.263)
Codec ID                                 : XVID
Codec ID/Hint                            : XviD
Duration                                 : 21mn 28s
Bit rate                                 : 1 725 Kbps
Width                                    : 720 pixels
Height                                   : 400 pixels
Display aspect ratio                     : 16:9
Frame rate                               : 23.976 fps
Color space                              : YUV
Chroma subsampling                       : 4:2:0
Bit depth                                : 8 bits
Scan type                                : Progressive
Compression mode                         : Lossy
Bits/(Pixel*Frame)                       : 0.250
Stream size                              : 265 MiB (81%)
Writing library                          : XviD 1.2.1 (UTC 2008-12-04)
Audio
ID                                       : 1
Format                                   : AC-3
Format/Info                              : Audio Coding 3
Mode extension                           : CM (complete main)
Format settings, Endianness              : Big
Codec ID                                 : 2000
Duration                                 : 21mn 28s
Bit rate mode                            : Constant
Bit rate                                 : 384 Kbps
Channel(s)                               : 6 channels
Channel positions                        : Front: L C R, Side: L R, LFE
Sampling rate                            : 48.0 KHz
Bit depth                                : 16 bits
Compression mode                         : Lossy
Stream size                              : 59.0 MiB (18%)
Alignment                                : Split accross interleaves
Interleave, duration                     : 42 ms (1.00 video frame)
Interleave, preload duration             : 500 ms

Скриншоты

Создавать темы 07-Дек-2014 00:15

[Профиль]  [ЛС] 

SNation ®

Стаж: 4 года 6 месяцев

Сообщений: 81

Симпатии: 70

Странные существа следят здесь за проверкой релизов!!!

Создавать темы 08-Дек-2014 10:42

[Профиль]  [ЛС] 
Показать сообщения:    
Ответить на тему

Текущее время: 18-Окт 05:26

Часовой пояс: UTC + 5



Вы не можете начинать темы
Вы не можете отвечать на сообщения
Вы не можете редактировать свои сообщения
Вы не можете удалять свои сообщения
Вы не можете голосовать в опросах
Вы не можете прикреплять файлы к сообщениям
Вы не можете скачивать файлы