Газгольдер: Фильм (Иван Курский) [2014 г., Экшн-комикс, криминал, боевик, музыкальный, WEBRip]

Страницы :  1, 2  След.

Ответить на тему
 

Zab ®

Стаж: 6 лет 6 месяцев

Сообщений: 476

Симпатии: 424

Газгольдер: Фильм- Год выпуска: 2014
Страна: Россия
Жанр: Экшн-комикс, криминал, боевик, музыкальный
Продолжительность: 02:03:40
Перевод: Не Требуется-Режиссер: Иван Курский
В ролях: Баста, АК-47, Смоки Мо, Гуф, Триагрутрика, QП, Тати, Словецкий, Груз-Описание: У Басты и его друзей произошел серьезный конфликт с могущественным кланом силовиков. Ребятам предстоит найти выход из сложившейся ситуации, включив всю мощь творческой энергии.-|16+| зрителям достигшим 16 лет-Качество: WEBRip
Формат: AVI
Видео кодек: XviD
Аудио кодек: AC3
Видео: Xvid, 720x304, 25fps, 1481kbps
Аудио: AC3, 48000Hz, stereo 192kbps-

MI

General
Complete name                            : D:\[Moives]\Газгольдер.2014.O.WEBRip.1400MB.avi
Format                                   : AVI
Format/Info                              : Audio Video Interleave
File size                                : 1.45 GiB
Duration                                 : 2h 3mn
Overall bit rate                         : 1 683 Kbps
Writing application                      : VirtualDubMod 1.5.10.2 (build 2540/release)
Writing library                          : VirtualDubMod build 2540/release
Video
ID                                       : 0
Format                                   : MPEG-4 Visual
Format profile                           : Advanced [email protected]
Format settings, BVOP                    : 2
Format settings, QPel                    : No
Format settings, GMC                     : No warppoints
Format settings, Matrix                  : Default (MPEG)
Codec ID                                 : XVID
Codec ID/Hint                            : XviD
Duration                                 : 2h 3mn
Bit rate                                 : 1 481 Kbps
Width                                    : 720 pixels
Height                                   : 304 pixels
Display aspect ratio                     : 2.35:1
Frame rate                               : 25.000 fps
Color space                              : YUV
Chroma subsampling                       : 4:2:0
Bit depth                                : 8 bits
Scan type                                : Progressive
Compression mode                         : Lossy
Bits/(Pixel*Frame)                       : 0.271
Stream size                              : 1.28 GiB (88%)
Writing library                          : XviD 1.2.1 (UTC 2008-12-04)
Audio
ID                                       : 1
Format                                   : AC-3
Format/Info                              : Audio Coding 3
Mode extension                           : CM (complete main)
Format settings, Endianness              : Big
Codec ID                                 : 2000
Duration                                 : 2h 3mn
Bit rate mode                            : Constant
Bit rate                                 : 192 Kbps
Channel(s)                               : 2 channels
Channel positions                        : Front: L R
Sampling rate                            : 48.0 KHz
Bit depth                                : 16 bits
Compression mode                         : Lossy
Stream size                              : 170 MiB (11%)
Alignment                                : Split accross interleaves
Interleave, duration                     : 40 ms (1.00 video frame)
Interleave, preload duration             : 500 ms

Скриншоты



Последний раз редактировалось: Zab (2014-12-13 15:17), всего редактировалось 1 раз

Создавать темы 11-Дек-2014 20:06

[Профиль]  [ЛС] 

eminem

Стаж: 7 лет

Сообщений: 104

Ну наконец-то!!

Создавать темы 11-Дек-2014 20:38

[Профиль]  [ЛС] 

ibragimof

Стаж: 6 лет 7 месяцев

Сообщений: 253

Симпатии: 48

Герман, Ольга Петровна и т.д.. Образы из старой "кухни", ранние годы творчества Смоки Мо и Krec. Хотя бы Антона не тронули.
И то, те 3-4х минутные песни гораздо содержательнее, чем этот фильм.
1 из 10.

Создавать темы 11-Дек-2014 20:56

[Профиль]  [ЛС] 

hunter07

Стаж: 4 года 5 месяцев

Сообщений: 15

Симпатии: 1

спасибки огроменное за релиз... красава долго ждал и дождался

Создавать темы 11-Дек-2014 21:16

[Профиль]  [ЛС] 

Rustya

Стаж: 4 года 1 месяц

Сообщений: 9

В ролях Гуфа указать забыл не хорошо так )

Создавать темы 13-Дек-2014 08:35

[Профиль]  [ЛС] 

Rusy

Стаж: 4 года 9 месяцев

Сообщений: 6

Симпатии: 4

Ура!!!!!!

Создавать темы 13-Дек-2014 19:32

[Профиль]  [ЛС] 

sem

Стаж: 7 лет 1 месяц

Сообщений: 123

Симпатии: 6

о_О качаем

Создавать темы 14-Дек-2014 16:25

[Профиль]  [ЛС] 

саня

Стаж: 5 лет 10 месяцев

Сообщений: 20

Симпатии: 1

с раздачи не уходите плиз

Создавать темы 21-Дек-2014 22:31

[Профиль]  [ЛС] 

xabibcik

Стаж: 3 года 9 месяцев

Сообщений: 20

Симпатии: 1

спасиб за релиз фильм класс

Создавать темы 23-Дек-2014 11:25

[Профиль]  [ЛС] 

Evgeny99

Стаж: 6 лет 10 месяцев

Сообщений: 82

Симпатии: 3

уже двух часовые клипы начали снимать )))

Создавать темы 23-Дек-2014 23:26

[Профиль]  [ЛС] 

qwq777qwq

Стаж: 6 лет 10 месяцев

Сообщений: 6

Симпатии: 1

Мусор

Создавать темы 24-Дек-2014 00:07

[Профиль]  [ЛС] 

jetxxxx

Стаж: 4 года 10 месяцев

Сообщений: 38

Симпатии: 1

такую чушь я еще не смотрел...

Создавать темы 25-Дек-2014 01:14

[Профиль]  [ЛС] 

Evgeny99

Стаж: 6 лет 10 месяцев

Сообщений: 82

Симпатии: 3

905114такую чушь я еще не смотрел...
и не говори зато в кино показывали больше года ))

Создавать темы 25-Дек-2014 11:37

[Профиль]  [ЛС] 

Shuk

Стаж: 4 года

Сообщений: 35

Симпатии: 11

пустая трата времени.

Создавать темы 27-Дек-2014 06:30

[Профиль]  [ЛС] 

HiTMaN

Стаж: 7 лет 5 месяцев

Сообщений: 50

Симпатии: 1

честно говоря ТУФТА!)

Создавать темы 31-Дек-2014 12:56

[Профиль]  [ЛС] 
Показать сообщения:    
Ответить на тему

Текущее время: 20-Ноя 16:59

Часовой пояс: UTC + 5



Вы не можете начинать темы
Вы не можете отвечать на сообщения
Вы не можете редактировать свои сообщения
Вы не можете удалять свои сообщения
Вы не можете голосовать в опросах
Вы не можете прикреплять файлы к сообщениям
Вы не можете скачивать файлы