13-й воин / The 13th Warrior (Джон Мактирнан / John McТiernan) [1999 г., боевик, фэнтези, приключения, BDRip]

Ответить на тему
 

maxuz ®

Стаж: 6 лет 7 месяцев

Сообщений: 55

Симпатии: 3

13-й воин / The 13th Warrior-- --Год выпуска: 1999--Страна: США--Жанр: боевик, фэнтези, приключения--Продолжительность: 01.42.46--Перевод: Профессиональный (полное дублирование)--Режиссер: Джон Мактирнан / John McТiernan--В ролях: Антонио Бандерас, Владимир Кулич, Дэннис Сторхо, Дэниэл Саузерн, Нил Маффин, Джон ДеСантис, Клив Расселл, Миша Хауссерманн, Oliver Sveinall, Asbjørn 'Bear' Riis--Описание: Ахмед ибн Фахдлан, утонченный аристократ и поэт, в наказание за любовь отправился посланником цивилизованного Востока на варварский Север, к диким и необузданным викингам. Эти храбрые воины готовились к походу против таинственного племени Пожирателей Трупов, опустошающего деревни и оставляющего после себя груду человеческих скелетов. По древнему поверью, только тринадцать воинов могут одолеть звероподобного врага. Но, чтобы пророчество сбылось, один из смельчаков должен быть чужестранцем… Волей счастливого случая или зловещего рока, бывший поэт, а ныне тринадцатый воин берет в руки оружие и отправляется туда, где умолкают даже неустрашимые викинги, чтобы случайно не назвать свой страх поимени.--Качество: BDRip
Формат: MKV
Видео кодек: H.26x
Аудио кодек: AC3
Видео: 1920x816, 23.976 fps
Аудио1: AC3, 384 kb/s (6Ch)-Дубляж-ВидеоСервис
Аудио2: AC3, 448 kb/s (6Ch)-Многоголосый закадровый-Superbit
Аудио3: AC3, 448 kb/s (6Ch)-Одноголосый закадровый-А. Гаврилов
Аудио4: AC3, 448 kb/s (6Ch)-Одноголосый закадровый-Дмитрий «Гоблин» Пучков
Аудио5: AC3, 448 kb/s (6Ch)-Оригинал
Субтитры: Русские, Английские--

МИ

D:\Òîððåíò\13 âîéí\13 âîéí.mkv
General
Unique ID : 215907401736953455054503207789226441894 (0xA26E40C60CD1CA5390D883E90B853CA6)
Complete name : D:\Òîððåíò\13 âîéí\13 âîéí.mkv
Format : Matroska
Format version : Version 2
File size : 7.82 GiB
Duration : 1h 42mn
Overall bit rate : 10.9 Mbps
Movie name : 13-é âîèí / The 13th Warrior (1999) BDRip 1080p-Rip by Neofilm for Neoclub.net
Encoded date : UTC 2011-07-24 10:34:14
Writing application : mkvmerge v3.3.0 ('Language') built on Mar 24 2010 14:59:24
Writing library : libebml v0.8.0 + libmatroska v0.9.0
Video #1
ID : 1
Format : AVC
Format/Info : Advanced Video Codec
Format profile : [email protected]
Format settings, CABAC : Yes
Format settings, ReFrames : 5 frames
Codec ID : V_MPEG4/ISO/AVC
Duration : 1h 42mn
Bit rate : 8 690 Kbps
Width : 1 920 pixels
Height : 816 pixels
Display aspect ratio : 2.35:1
Frame rate mode : Constant
Frame rate : 23.976 fps
Color space : YUV
Chroma subsampling : 4:2:0
Bit depth : 8 bits
Scan type : Progressive
Bits/(Pixel*Frame) : 0.231
Stream size : 6.10 GiB (78%)
Title : 13-é âîèí / The 13th Warrior (1999) BDRip 1080p
Writing library : x264 core 115 r1995 c1e60b9
Encoding settings : cabac=1 / ref=5 / deblock=1:-3:-3 / analyse=0x3:0x113 / me=umh / subme=10 / psy=1 / psy_rd=1.05:0.05 / mixed_ref=1 / me_range=32 / chroma_me=1 / trellis=2 / 8x8dct=1 / cqm=0 / deadzone=21,11 / fast_pskip=0 / chroma_qp_offset=-3 / threads=6 / sliced_threads=0 / nr=0 / decimate=0 / interlaced=0 / bluray_compat=0 / constrained_intra=0 / bframes=3 / b_pyramid=2 / b_adapt=2 / b_bias=0 / direct=3 / weightb=1 / open_gop=0 / weightp=2 / keyint=250 / keyint_min=23 / scenecut=40 / intra_refresh=0 / rc_lookahead=60 / rc=2pass / mbtree=1 / bitrate=8690 / ratetol=1.0 / qcomp=0.60 / qpmin=10 / qpmax=51 / qpstep=4 / cplxblur=20.0 / qblur=0.5 / vbv_maxrate=40000 / vbv_bufsize=40000 / nal_hrd=none / ip_ratio=1.40 / aq=1:1.00
Language : English
Default : No
Forced : No
Audio #2
ID : 2
Format : AC-3
Format/Info : Audio Coding 3
Mode extension : CM (complete main)
Format settings, Endianness : Big
Codec ID : A_AC3
Duration : 1h 42mn
Bit rate mode : Constant
Bit rate : 384 Kbps
Channel(s) : 6 channels
Channel positions : Front: L C R, Side: L R, LFE
Sampling rate : 48.0 KHz
Bit depth : 16 bits
Compression mode : Lossy
Stream size : 282 MiB (4%)
Title : Äóáëÿæ |ÂèäåîÑåðâèñ|
Language : Russian
Default : Yes
Forced : No
Audio #3
ID : 3
Format : AC-3
Format/Info : Audio Coding 3
Mode extension : CM (complete main)
Format settings, Endianness : Big
Codec ID : A_AC3
Duration : 1h 42mn
Bit rate mode : Constant
Bit rate : 448 Kbps
Channel(s) : 6 channels
Channel positions : Front: L C R, Side: L R, LFE
Sampling rate : 48.0 KHz
Bit depth : 16 bits
Compression mode : Lossy
Stream size : 329 MiB (4%)
Title : Ìíîãîãîëîñûé |Superbit|
Language : Russian
Default : No
Forced : No
Audio #4
ID : 4
Format : AC-3
Format/Info : Audio Coding 3
Mode extension : CM (complete main)
Format settings, Endianness : Big
Codec ID : A_AC3
Duration : 1h 42mn
Bit rate mode : Constant
Bit rate : 448 Kbps
Channel(s) : 6 channels
Channel positions : Front: L C R, Side: L R, LFE
Sampling rate : 48.0 KHz
Bit depth : 16 bits
Compression mode : Lossy
Stream size : 329 MiB (4%)
Title : Îäíîãîëîñûé |À.Ãàâðèëîâ|
Language : Russian
Default : No
Forced : No
Audio #5
ID : 5
Format : AC-3
Format/Info : Audio Coding 3
Mode extension : CM (complete main)
Format settings, Endianness : Big
Codec ID : A_AC3
Duration : 1h 42mn
Bit rate mode : Constant
Bit rate : 448 Kbps
Channel(s) : 6 channels
Channel positions : Front: L C R, Side: L R, LFE
Sampling rate : 48.0 KHz
Bit depth : 16 bits
Compression mode : Lossy
Stream size : 329 MiB (4%)
Title : Îäíîãîëîñûé | Äìèòðèé Ïó÷êîâ «Ãîáëèí» |
Language : Russian
Default : No
Forced : No
Audio #6
ID : 6
Format : AC-3
Format/Info : Audio Coding 3
Mode extension : CM (complete main)
Format settings, Endianness : Big
Codec ID : A_AC3
Duration : 1h 42mn
Bit rate mode : Constant
Bit rate : 448 Kbps
Channel(s) : 6 channels
Channel positions : Front: L C R, Side: L R, LFE
Sampling rate : 48.0 KHz
Bit depth : 16 bits
Compression mode : Lossy
Stream size : 329 MiB (4%)
Title : Îðèãèíàë
Language : English
Default : No
Forced : No
Text #7
ID : 7
Format : PGS
Codec ID : S_HDMV/PGS
Codec ID/Info : The same subtitle format used on BDs/HD-DVDs
Language : Russian
Default : No
Forced : No
Text #8
ID : 8
Format : PGS
Codec ID : S_HDMV/PGS
Codec ID/Info : The same subtitle format used on BDs/HD-DVDs
Language : English
Default : No
Forced : No

Скриншоты



Создавать темы 11-Дек-2014 21:44

[Профиль]  [ЛС] 

maxuz ®

Стаж: 6 лет 7 месяцев

Сообщений: 55

Симпатии: 3

mb

Создавать темы 13-Дек-2014 00:27

[Профиль]  [ЛС] 
Показать сообщения:    
Ответить на тему

Текущее время: 22-Сен 00:36

Часовой пояс: UTC + 5



Вы не можете начинать темы
Вы не можете отвечать на сообщения
Вы не можете редактировать свои сообщения
Вы не можете удалять свои сообщения
Вы не можете голосовать в опросах
Вы не можете прикреплять файлы к сообщениям
Вы не можете скачивать файлы