Закон доблести / Act of Valor (Майк МакКой)[2012 г., боевик, триллер, приключения, BDRip-AVC,] Лицензия

Ответить на тему
 

PIXEL 100 ®

Стаж: 4 года 3 месяца

Сообщений: 49

Симпатии: 8

Закон доблести / Act of Valor
Год выпуска: 2012
Страна: США
Жанр: боевик, триллер, приключения
Продолжительность: 01:49:30
Перевод: Профессиональный (полное дублирование) Лицензия
Режиссер: Майк МакКой, Скотт Во ,
В ролях: Джейсон Коттл, Серрано, Маршалл, Менендес, Ривера, Маринов, Розалес мл, Маргулис, Сауфуорф, Кастро...
Описание: История о нелегких буднях элитной группы «морские котики», которым поручено вытащить из плена агентов ЦРУ. Выполняя задание, бойцы попутно уничтожают террористическую группу, в планы которой входила масштабная атака на США.
Доп. информация: Бюджет: $12 000 000
Сборы в США: $70 012 847
Сборы в мире: + $10 406 866 = $80 419 713
Сборы в России: $143 770
Премьера (мир): 7 февраля 2012
Релиз на DVD: 12 июня 2012, «Парадиз Медиа»
Релиз на Blu-Ray: 12 июня 2012, «Парадиз Медиа»
Качество: BDRip-AVC
Формат: MKV
Видео кодек: H.26x
Аудио кодек: AC3
Видео: MPEG4 Video (H264) 1920x1072 (16:9) 23.976fps
Аудио: Dolby AC3 48000Hz 6ch 384kbps

Mediainfo

Format : Matroska
Format version : Version 2
File size : 4.36 GiB
Duration : 1h 49mn
Overall bit rate : 5 704 Kbps
Encoded date : UTC 2012-06-15 14:45:42
Writing application : mkvmerge v5.5.0 ('Healer') built on Apr 6 2012 21:43:24
Writing library : libebml v1.2.3 + libmatroska v1.3.0
Video
ID : 1
Format : AVC
Format/Info : Advanced Video Codec
Format profile : [email protected]
Format settings, CABAC : Yes
Format settings, ReFrames : 4 frames
Codec ID : V_MPEG4/ISO/AVC
Duration : 1h 49mn
Bit rate : 5 326 Kbps
Width : 1 920 pixels
Height : 1 072 pixels
Display aspect ratio : 16:9
Original display aspect ratio : 16:9
Frame rate mode : Constant
Frame rate : 23.976 fps
Color space : YUV
Chroma subsampling : 4:2:0
Bit depth : 8 bits
Scan type : Progressive
Bits/(Pixel*Frame) : 0.108
Stream size : 3.98 GiB (91%)
Title : Закон доблести
Writing library : x264 core 120 r2164 da19765
Encoding settings : cabac=1 / ref=4 / deblock=1:0:0 / analyse=0x3:0x133 / me=hex / subme=7 / psy=1 / psy_rd=1.00:0.00 / mixed_ref=1 / me_range=16 / chroma_me=1 / trellis=1 / 8x8dct=1 / cqm=0 / deadzone=21,11 / fast_pskip=0 / chroma_qp_offset=-2 / threads=6 / sliced_threads=0 / nr=0 / decimate=1 / interlaced=0 / bluray_compat=0 / constrained_intra=0 / bframes=3 / b_pyramid=2 / b_adapt=2 / b_bias=0 / direct=1 / weightb=1 / open_gop=0 / weightp=2 / keyint=240 / keyint_min=23 / scenecut=40 / intra_refresh=0 / rc_lookahead=40 / rc=2pass / mbtree=1 / bitrate=5326 / ratetol=2.0 / qcomp=0.60 / qpmin=0 / qpmax=69 / qpstep=4 / cplxblur=20.0 / qblur=0.5 / ip_ratio=1.40 / aq=1:1.00
Language : English
Default : Yes
Forced : No
Audio
ID : 2
Format : AC-3
Format/Info : Audio Coding 3
Mode extension : CM (complete main)
Format settings, Endianness : Big
Codec ID : A_AC3
Duration : 1h 49mn
Bit rate mode : Constant
Bit rate : 384 Kbps
Channel(s) : 6 channels
Channel positions : Front: L C R, Side: L R, LFE
Sampling rate : 48.0 KHz
Bit depth : 16 bits
Compression mode : Lossy
Stream size : 301 MiB (7%)
Title : Дублированное [лицензия]
Language : Russian
Default : Yes
Forced : No

Скриншоты



Последний раз редактировалось: PIXEL 100 (2014-12-13 16:46), всего редактировалось 1 раз

Создавать темы 12-Дек-2014 20:53

[Профиль]  [ЛС] 

PIXEL 100 ®

Стаж: 4 года 3 месяца

Сообщений: 49

Симпатии: 8

Извеняюсь фай испортилась вынужден удалить сожелею

Создавать темы 12-Дек-2014 22:00

[Профиль]  [ЛС] 

PIXEL 100 ®

Стаж: 4 года 3 месяца

Сообщений: 49

Симпатии: 8

всё норма обновите торент файл

Создавать темы 13-Дек-2014 16:47

[Профиль]  [ЛС] 
Показать сообщения:    
Ответить на тему

Текущее время: 19-Авг 12:35

Часовой пояс: UTC + 5



Вы не можете начинать темы
Вы не можете отвечать на сообщения
Вы не можете редактировать свои сообщения
Вы не можете удалять свои сообщения
Вы не можете голосовать в опросах
Вы не можете прикреплять файлы к сообщениям
Вы не можете скачивать файлы