Исчезнувшая / Gone Girl (Дэвид Финчер / David Fincher) [2014, США, Триллер, драма, детектив, экранизация, WEB-DL (1080p)] Dub [Чистый звук] + Original Eng + Sub Eng

Ответить на тему
 

yusuf.0088 ®

Стаж: 4 года 2 месяца

Сообщений: 116

Симпатии: 69

Исчезнувшая / Gone Girl
«Что имеем — не храним, потерявши — плачем»
-- Год выпуска: 2014
Страна: США
Жанр: Триллер, драма, детектив, экранизация
Продолжительность: 02:29:15--Перевод: Профессиональный (полное дублирование) [Чистый звук]
Оригинальная дорожка: Английский
Cубтитры: Английские--Режиссер: Дэвид Финчер / David Fincher--В ролях: Розамунд Пайк, Бен Аффлек, Нил Патрик Харрис, Мисси Пайл, Скут МакНэйри, Кэрри Кун, Тайлер Перри, Ли Норрис, Бойд Холбрук, Патрик Фьюджит, Эмили Ратажковски, Кейси Уилсон, Лола Керк, Дэвид Кленнон--Описание:
Все было готово для празднования пятилетнего юбилея супружеской жизни, когда вдруг необъяснимо пропал один из виновников торжества. Остались следы борьбы в доме, кровь, которую явно пытались стереть, - и цепочка «ключей» в игре под названием «охота за сокровищами»; красивая, умная и невероятно изобретательная жена ежегодно устраивала ее для своего обожаемого мужа. И похоже, что эти «ключи» - размещенные ею тут и там странные записки и не менее странные безделушки - дают единственный шанс пролить свет на судьбу исчезнувшей. Вот только не придется ли «охотнику» в процессе поиска раскрыть миру и пару-тройку собственных малосимпатичных тайн?-- --Качество: WEB-DL (1080p)
Формат: mkv--Видео: MPEG-4 AVC / 3805 Кбит/с, 1916x796
Аудио 1: Русский AC3 2 ch / 384 Кбит/с / 48КГц |Дубляж|
Аудио 2: Английский AC3 6 ch / 384 Кбит/с / 48КГц |Original|

Media Info

Формат : Matroska
Версия формата : Version 4 / Version 2
Размер файла : 4,86 Гбайт
Продолжительность : 2 ч. 29 м.
Общий поток : 4666 Кбит/сек
Дата кодирования : UTC 2014-12-13 11:03:53
Программа кодирования : mkvmerge v6.9.1 ('Blue Panther') 64bit built on Apr 18 2014 18:23:38
Библиотека кодирования : libebml v1.3.0 + libmatroska v1.4.1
Attachment : Yes / Yes / Yes / Yes
Видео
Идентификатор : 1
Формат : AVC
Формат/Информация : Advanced Video Codec
Профиль формата : [email protected]
Параметр CABAC формата : Да
Параметр ReFrames формата : 5 кадров
Идентификатор кодека : V_MPEG4/ISO/AVC
Продолжительность : 2 ч. 29 м.
Битрейт : 3805 Кбит/сек
Ширина : 1916 пикселей
Высота : 796 пикселей
Соотношение сторон : 2,40:1
Режим частоты кадров : Постоянный
Частота кадров : 23,976 кадра/сек
Цветовое пространство : YUV
Субдискретизация насыщенности : 4:2:0
Битовая глубина : 8 бит
Тип развёртки : Прогрессивная
Бит/(Пиксели*Кадры) : 0.104
Размер потока : 3,97 Гбайт (82%)
Язык : English
Default : Да
Forced : Нет
Основные цвета : BT.709
Характеристики трансфера : BT.709
Коэффициенты матрицы : BT.709
Аудио #1
Идентификатор : 2
Формат : AC-3
Формат/Информация : Audio Coding 3
Расширение режима : CM (complete main)
Параметр Endianness формата : Big
Идентификатор кодека : A_AC3
Продолжительность : 2 ч. 29 м.
Вид битрейта : Постоянный
Битрейт : 384 Кбит/сек
Каналы : 2 канала
Расположение каналов : Front: L R
Частота : 48,0 КГц
Битовая глубина : 16 бит
Метод сжатия : С потерями
Размер потока : 410 Мбайт (8%)
Default : Да
Forced : Нет
Аудио #2
Идентификатор : 3
Формат : AC-3
Формат/Информация : Audio Coding 3
Расширение режима : CM (complete main)
Параметр Endianness формата : Big
Идентификатор кодека : A_AC3
Продолжительность : 2 ч. 29 м.
Вид битрейта : Постоянный
Битрейт : 384 Кбит/сек
Каналы : 6 каналов
Расположение каналов : Front: L C R, Side: L R, LFE
Частота : 48,0 КГц
Битовая глубина : 16 бит
Метод сжатия : С потерями
Размер потока : 410 Мбайт (8%)
Язык : English
Default : Нет
Forced : Нет
Текст
Идентификатор : 4
Формат : UTF-8
Идентификатор кодека : S_TEXT/UTF8
Идентификатор кодека/Информация : UTF-8 Plain Text
Язык : English
Default : Нет
Forced : Нет
Меню
00:00:00.000 : en:1
00:03:26.000 : en:2
00:06:56.000 : en:3
00:08:17.000 : en:4
00:11:56.000 : en:5
00:14:59.000 : en:6
00:18:11.000 : en:7
00:19:54.000 : en:8
00:21:40.000 : en:9
00:23:51.000 : en:10
00:28:32.000 : en:11
00:31:29.000 : en:12
00:34:35.000 : en:13
00:40:47.000 : en:14
00:44:33.000 : en:15
00:46:53.000 : en:16
00:49:15.000 : en:17
00:54:08.000 : en:18
01:00:01.000 : en:19
01:03:11.000 : en:20
01:06:03.000 : en:21
01:12:51.000 : en:22
01:15:07.000 : en:23
01:19:48.000 : en:24
01:21:50.000 : en:25
01:27:17.000 : en:26
01:28:06.000 : en:27
01:33:21.000 : en:28
01:39:27.000 : en:29
01:46:19.000 : en:30
01:50:38.000 : en:31
01:56:32.000 : en:32
01:58:57.000 : en:33
02:02:14.000 : en:34
02:05:26.000 : en:35
02:12:21.000 : en:36
02:16:03.000 : en:37
02:19:47.000 : en:38
02:22:32.000 : en:39
02:24:05.000 : en:40

Скриншоты

Создавать темы 15-Дек-2014 09:09

[Профиль]  [ЛС] 

gayrat_86

Стаж: 4 года 6 месяцев

Сообщений: 4

da

Создавать темы 22-Дек-2014 11:11

[Профиль]  [ЛС] 

Michel

Стаж: 7 лет

Сообщений: 78

Симпатии: 5

Круть, ждём лицуху.

Создавать темы 22-Дек-2014 19:38

[Профиль]  [ЛС] 
Показать сообщения:    
Ответить на тему

Текущее время: 18-Дек 09:59

Часовой пояс: UTC + 5



Вы не можете начинать темы
Вы не можете отвечать на сообщения
Вы не можете редактировать свои сообщения
Вы не можете удалять свои сообщения
Вы не можете голосовать в опросах
Вы не можете прикреплять файлы к сообщениям
Вы не можете скачивать файлы